новый адрес
Ссылка на приватное зеркало всего за 1$. Внимание количество ограничено!!!

iTunes

1+1

iTunes

мы

WEB-DL

1

iTunes

Чернобыль

iTunes

Ральф против интернета

Лицензия

ПШазам

Лицензия

Оно 2

Лицензия

30
pack

Вам бонус

ВАЖНО

!!Акция!!

Alien_RageХит недели

RePack

Resident Evil 21

ИГРА 18+

pack

RePack

jed

!!Акция!!

Alien_Rage

RePack

fifa19

RePack

Assassins Creed: Odyssey

RePack

NEED FOR SPEED™ PAYBACK

3 сезон

9 сезон

Бесстыжие 9 сезон

Все сериалы

все сериалы на PB.wtf

RePack

FAR CRY 5
Ребята, катастрофически не хватает 1900р. для оплаты серверов за Октябрь (всвязи с блокировками трафик упал в 3 раза), 1-2р., выручайте.
  

Порок на экспорт / Eastern Promises (Дэвид Кроненберг) [2007 г., Триллер, драма, детектив, криминал, BDRip 1080p, Дублированый, одноголосый авторский (Юрий Немахов) ] pb.wtf

Порок на экспорт через торрент pb.wtf

Размер: 7.96 GB | Добавлен: 6 лет 9 мес. назад | Торрент скачан:12 раз
Скачать  

19-02-2013 18:18 Порок на экспорт Скачать торрент  

Порок на экспорт / Eastern Promises

Год выпуска: 2007
Страна: Канада, Великобритания
Жанр: Триллер, драма, детектив, криминал
Продолжительность: 01:40:33
Перевод: Дублированый, одноголосый авторский (Юрий Немахов)
Тип релиза: Лицензия

Режиссер: Дэвид Кроненберг
Продюссер: Стивен Гаррет, Роберт Лантош, Трэйси Сиуорд
Сценарий: Стивен Найт

Бюджет: £25 000 000
Премьера в мире: 8 сентября 2007

В ролях: Наоми Уоттс, Вигго Мортенсен, Венсан Кассель, Шинейд Кьюсак, Армин Мюллер-Шталь, Ежи Сколимовский, Сара-Джинн Лабросс, Дональд Самптер, Майкл Сарн, Юсуф Алтин

Описание: Накануне Рождества в Лондоне при родах умирает молодая русская женщина, совсем юная, почти подросток. На руках акушерки Анны остается младенец и дневник, который она нашла в вещах девушки. Анна ужасается ее истории жизни и начинает собственное расследование, которое прямо ведет в логово русской мафии. Так она знакомится с Николаем, который помогает ей разобраться в этой запутанной истории. Анна и не догадывается, что ее новый знакомый - жестокий и таинственный киллер, который принадлежит к одной из русских группировок Лондона, а факты, описанные в дневнике, компрометируют его босса. Завязывается еще одна ужасающая цепочка любви и убийств, обмана и возмездия…

Качество: BDRip 1080p
Формат: AVС
Видео кодек: MPEG-4 AVC
Аудио кодек: AC3
Видео: 1920x1040, 23.976 fps, 9592 kbps
Аудио#1: Russian: AC3, 640 Kbps (6 ch) Дублированный
Аудио#2: Russian: AC3, 448 Kbps (6 ch) Aвторский одноголосый (Юрий Немахов)
Аудио#3: English: AC3, 640 kb/s (6 ch) Original




Общее
Уникальный идентификатор : 234395380569016082433024092467466193288 (0xB056E8818656C37CB2662236DC79C988)
Полное имя : C:UsersмммDownloadsEastern.Promises.2007.x264.BDRip.1080p.mkv
Формат : Matroska
Версия формата : Version 2
Размер файла : 7,96 Гбайт
Продолжительность : 1 ч. 40 м.
Общий поток : 11,3 Мбит/сек
Название фильма : ☭WIDDER☭
Дата кодирования : UTC 2013-01-24 13:08:16
Программа кодирования : mkvmerge v4.5.0 ('Speed of Light') сборка от Feb 1 2011 02:10:32
Библиотека кодирования : libebml v1.2.0 + libmatroska v1.1.0

Видео
Идентификатор : 1
Формат : AVC
Формат/Информация : Advanced Video Codec
Профиль формата : High@L4.1
Параметр CABAC формата : Да
Параметр ReFrames формата : 4 кадра
Идентификатор кодека : V_MPEG4/ISO/AVC
Продолжительность : 1 ч. 40 м.
Битрейт : 9592 Кбит/сек
Ширина : 1920 пикселей
Высота : 1040 пикселей
Соотношение сторон : 1,85:1
Режим частоты кадров : Постоянный
Частота кадров : 23,976 кадра/сек
Цветовое пространство : YUV
Субдискретизация насыщенности : 4:2:0
Битовая глубина : 8 бит
Тип развёртки : Прогрессивная
Бит/(Пиксели*Кадры) : 0.200
Размер потока : 6,59 Гбайт (83%)
Заголовок : Eastern Promises (2007)
Библиотека кодирования : x264 core 129 r2230 1cffe9f
Настройки программы : cabac=1 / ref=4 / deblock=1:-3:-3 / analyse=0x3:0x133 / me=umh / subme=10 / psy=1 / psy_rd=1.00:0.00 / mixed_ref=1 / me_range=48 / chroma_me=1 / trellis=2 / 8x8dct=1 / cqm=0 / deadzone=21,11 / fast_pskip=0 / chroma_qp_offset=-2 / threads=16 / lookahead_threads=2 / sliced_threads=0 / nr=0 / decimate=1 / interlaced=0 / bluray_compat=0 / constrained_intra=0 / bframes=6 / b_pyramid=2 / b_adapt=2 / b_bias=0 / direct=3 / weightb=1 / open_gop=0 / weightp=2 / keyint=240 / keyint_min=23 / scenecut=40 / intra_refresh=0 / rc=2pass / mbtree=0 / bitrate=9592 / ratetol=1.0 / qcomp=0.60 / qpmin=0 / qpmax=69 / qpstep=4 / cplxblur=20.0 / qblur=0.5 / ip_ratio=1.40 / pb_ratio=1.30 / aq=2:0.80
Язык : English
Default : Да
Forced : Нет

Аудио #1
Идентификатор : 2
Формат : AC-3
Формат/Информация : Audio Coding 3
Расширение режима : CM (complete main)
Параметр Endianness формата : Big
Идентификатор кодека : A_AC3
Продолжительность : 1 ч. 40 м.
Вид битрейта : Постоянный
Битрейт : 640 Кбит/сек
Каналы : 6 каналов
Расположение каналов : Front: L C R, Side: L R, LFE
Частота : 48,0 КГц
Битовая глубина : 16 бит
Метод сжатия : С потерями
Размер потока : 460 Мбайт (6%)
Заголовок : AC3, 640 Kbps (6 ch) Дублированный
Язык : Russian
Default : Да
Forced : Нет

Аудио #2
Идентификатор : 3
Формат : AC-3
Формат/Информация : Audio Coding 3
Расширение режима : CM (complete main)
Параметр Endianness формата : Big
Идентификатор кодека : A_AC3
Продолжительность : 1 ч. 40 м.
Вид битрейта : Постоянный
Битрейт : 448 Кбит/сек
Каналы : 6 каналов
Расположение каналов : Front: L C R, Side: L R, LFE
Частота : 48,0 КГц
Битовая глубина : 16 бит
Метод сжатия : С потерями
Размер потока : 322 Мбайт (4%)
Заголовок : AC3, 448 Kbps (6 ch) Aвторский (Юрий Немахов)
Язык : Russian
Default : Нет
Forced : Нет

Аудио #3
Идентификатор : 4
Формат : AC-3
Формат/Информация : Audio Coding 3
Расширение режима : CM (complete main)
Параметр Endianness формата : Big
Идентификатор кодека : A_AC3
Продолжительность : 1 ч. 40 м.
Вид битрейта : Постоянный
Битрейт : 640 Кбит/сек
Каналы : 6 каналов
Расположение каналов : Front: L C R, Side: L R, LFE
Частота : 48,0 КГц
Битовая глубина : 16 бит
Метод сжатия : С потерями
Размер потока : 460 Мбайт (6%)
Заголовок : AC3, 640 kb/s (6 ch) Original
Язык : English
Default : Нет
Forced : Нет

Текст #1
Идентификатор : 5
Формат : PGS
Режим смешивания : zlib
Идентификатор кодека : S_HDMV/PGS
Идентификатор кодека/Информация : The same subtitle format used on BDs/HD-DVDs
Язык : Russian
Default : Нет
Forced : Нет

Текст #2
Идентификатор : 6
Формат : PGS
Режим смешивания : zlib
Идентификатор кодека : S_HDMV/PGS
Идентификатор кодека/Информация : The same subtitle format used on BDs/HD-DVDs
Язык : English
Default : Нет
Forced : Нет

Меню
00:00:00.000 : :Chapter 01
00:04:45.118 : :Chapter 02
00:08:12.783 : :Chapter 03
00:14:39.378 : :Chapter 04
00:21:33.917 : :Chapter 05
00:29:05.785 : :Chapter 06
00:32:26.527 : :Chapter 07
00:37:51.894 : :Chapter 08
00:43:23.934 : :Chapter 09
00:47:28.679 : :Chapter 10
00:54:33.353 : :Chapter 11
00:56:50.824 : :Chapter 12
01:02:38.588 : :Chapter 13
01:09:58.319 : :Chapter 14
01:14:17.077 : :Chapter 15
01:20:57.561 : :Chapter 16
01:25:19.948 : :Chapter 17
01:27:28.159 : :Chapter 18


Порок на экспорт скачать торрент


pb.wtf



Скачать Порок на экспорт через торрент http://pic.kartinco.top/images/1/6lkw5yz7if.jpg Скачать фильм Порок на экспорт через торрент бесплантно в хорошем качестве Описание: Накануне Рождества в Лондоне при родах умирает молодая русская женщина, совсем юная, почти подросток. На руках акушерки Анны ... 5 10 1
Info! Золотая раздача, скачанное не засчитывается.
Торрент: Зарегистрирован [2013-02-19 18:18] · скачан: 12 раз
Статус: √ проверено
Размер: 7.96 GB
Как cкачать? Как скачать Порок на экспорт через торрент | qTorrent

% Раздел Тема Автор DL S | L
Арт-хаус и авторское кино [ 7.96 GB ] Порок на эк / Eastern Promises [2007 BDRip DUB] VintMosina Скачать
1 | 0
Арт-хаус и авторское кино [ 1.37 GB ] Порок на эк / Eastern Promises [2007 DVDRip лицензия] 19stalin91 Скачать
2 | 0


Последний раз редактировалось: CrazyPatrik (2013-02-20 05:11), всего редактировалось 6 раз(а)

28-11-2019 20:33  

Отключить всю рекламу на сайте

19-02-2013 18:41 Порок на экспорт Скачать торрент  

Перевод: Дубляж, звук с TS

Измени на лицензию и в шапке тоже!!!pb.wtf



19-02-2013 19:03 Порок на экспорт Скачать торрент  

CrazyPatrik
Твой сэмпл скачать не возможно. Перезалей на другой файлообменник. И вообще разберись с переводом.pb.wtf



19-02-2013 19:42 Порок на экспорт Скачать торрент  

спустя пять лет - TS выкладывать?..
срамота, да и только...pb.wtf



    Дорогой пользователь! Огромная просьба, поблагодарите релизера, оцените раздачу и оставьте свои комментарий, если Вы скачали Порок на экспорт через торрент бесплатно! Внесите свою лепту в развитие PiratBit!
    Комментировать посты могут только пользователи прошедшие не сложную регистрацию
    Показать сообщения:    

    Порок на экспорт через торрент
    Скачать бесплатно Порок на экспорт
    Порок на экспорт скачать торрент
    Порок на экспорт смотреть онлайн
    Cкачать фильм Порок на экспорт бесплатно
    Порок на экспорт скачать торрент в хорошем качестве
    Порок на экспорт смотреть онлайн бесплатно в хорошем качестве


    Вы не можете начинать темы
    Вы не можете отвечать на сообщения
    Вы не можете редактировать свои сообщения
    Вы не можете удалять свои сообщения
    Вы не можете голосовать в опросах
    Вы не можете прикреплять файлы к сообщениям
    Вы можете скачивать файлы