1 сезон

1 сезон

iTunes

1

КиноПоиск HD

Кинопоиск HD

iTunes

13

1 сезон

RePack

30

Ultimate

ВАЖНО

ИГРА 18+

pack

RePack

MK11
pack

Легкие деньги

RePack

jed

RePack

fifa19

RePack

RDR2

RePack

NEED FOR SPEED™ PAYBACK

4 сезон

9 сезон

Бесстыжие 9 сезон

Все сериалы

все сериалы на PB.wtf

RePack

FAR CRY 5
  
Magnet ссылка

Ночь живых придурков / Die Nacht der lebenden Loser (Матиас Динтер) [2004 г., Ужасы, комедия, DVDRip, Профессиональный двухголосый] pb.wtf

Ночь живых придурков через торрент pb.wtf

Размер: 700 MB | Добавлен: 8 лет 2 мес. назад | Торрент скачан:58 раз
Скачать  

20-02-2013 03:47 Ночь живых придурков Скачать торрент  

Ночь живых придурков / Die Nacht der lebenden Loser




Год выпуска: 2004
Страна: Германия
Жанр: Ужасы, комедия
Продолжительность: 01:27:33
Перевод: Профессиональный двухголосый
Тип релиза: Пиратка
Режиссер: Матиас Динтер
Продюссер: Миша Хофманн, Филип Фогс, Мэрион Дэни
Сценарий: Матиас Динтер
В ролях:Тино Мевес, Мануэль Кортез, Томас Шмидер, Колльен Фернандес, Хендрик Боргманн, Надин Германн, Сисси Перлингер, Хенри Грюндлер, Патриция Тилеманн, Оливер Гробер
Бюджет: €3 500 000
Премьера в мире: 4 ноября 2004


Описание: Трое друзей не пользуются особой популярностью в школе. Но однажды, возвращаясь домой после магического обряда Вуду, они попадают в жуткую автокатастрофу. Очнувшись уже в морге, с бирками на ногах, парни догадываются, что превратились в зомби. И благодаря этому стали умными, сильными и совершенно невосприимчивыми к боли.
Теперь друзья могут записаться в школьную команду по регби, посчитаться со своими обидчиками и завоевать любовь самых красивых и недоступных девушек. Но единственный способ вернуться к нормальной жизни — магический эликсир, состоящий из святой воды и крови девственницы…

Качество: DVDRip
Формат: AVI
Видео кодек: DivX
Аудио кодек: MP3
Видео: DivX 5 640x336 25fps 984 Kbps [00) Video]
Аудио#1: MP3 44100Hz stereo 128kbps [01) Audio]
General
Complete name : E:ВидеоНочь живых придурков.avi
Format : AVI
Format/Info : Audio Video Interleave
File size : 700 MiB
Duration : 1h 27mn
Overall bit rate mode : Variable
Overall bit rate : 1 119 Kbps

Video
ID : 0
Format : MPEG-4 Visual
Format settings, BVOP : 1
Format settings, QPel : No
Format settings, GMC : No warppoints
Format settings, Matrix : Default (H.263)
Muxing mode : Packed bitstream
Codec ID : DX50
Codec ID/Hint : DivX 5
Duration : 1h 27mn
Bit rate : 984 Kbps
Width : 640 pixels
Height : 336 pixels
Display aspect ratio : 1.905
Frame rate : 25.000 fps
Color space : YUV
Chroma subsampling : 4:2:0
Bit depth : 8 bits
Scan type : Progressive
Compression mode : Lossy
Bits/(Pixel*Frame) : 0.183
Stream size : 616 MiB (88%)
Title : Video
Writing library : DivX 5.2.1 Alpha (UTC 2004-09-08)

Audio
ID : 1
Format : MPEG Audio
Format version : Version 1
Format profile : Layer 3
Mode : Joint stereo
Codec ID : 55
Codec ID/Hint : MP3
Duration : 1h 27mn
Bit rate mode : Variable
Bit rate : 128 Kbps
Channel(s) : 2 channels
Sampling rate : 44.1 KHz
Compression mode : Lossy
Stream size : 76.5 MiB (11%)
Alignment : Aligned on interleaves
Interleave, duration : 26 ms (0.65 video frame)
Interleave, preload duration : 475 ms
Title : Audio




pb.wtf



Скачать Ночь живых придурков через торрент https://pic.kartinco.top/images/1/u5ukq1j5bq.jpg Скачать фильм Ночь живых придурков через торрент бесплантно в хорошем качестве Описание: Трое друзей не пользуются особой популярностью в школе. Но однажды, возвращаясь домой после магического обряда Вуду, они попадают ... 10 10 1
Info! Золотая раздача, скачанное не засчитывается.
Торрент: Зарегистрирован [2013-02-20 03:47] · скачан: 58 раз
Статус: √ проверено
Размер: 700 MB
Как cкачать? Как скачать Ночь живых придурков через торрент | UTorrent

% Раздел Тема Автор DL S | L
Фильмы 2001-2005 [ 1.44 GB ] Ночь живых придурков / Die Nacht der lebenden Loser [2004 DVDRip MVO] MEIDAN Скачать
1 | 0
Фильмы 2001-2005 [ 1.44 GB ] "Ночь живых придурков" / Die Nacht der lebenden Loser [2004 г DVDRip][Пиратка] ACFIORENTINA Скачать
1 | 0

28-11-2019 20:33  

Отключить всю рекламу на сайте

    Дорогой пользователь! Огромная просьба, поблагодарите релизера, оцените раздачу и оставьте свои комментарий, если Вы скачали Ночь живых придурков через торрент бесплатно! Внесите свою лепту в развитие PiratBit!
    Комментировать посты могут только пользователи прошедшие не сложную регистрацию
    Показать сообщения:    

    Ночь живых придурков через торрент
    Скачать бесплатно Ночь живых придурков
    Ночь живых придурков скачать торрент
    Ночь живых придурков смотреть онлайн
    Cкачать фильм Ночь живых придурков бесплатно
    Ночь живых придурков скачать торрент в хорошем качестве
    Ночь живых придурков смотреть онлайн бесплатно в хорошем качестве


    Вы не можете начинать темы
    Вы не можете отвечать на сообщения
    Вы не можете редактировать свои сообщения
    Вы не можете удалять свои сообщения
    Вы не можете голосовать в опросах
    Вы не можете прикреплять файлы к сообщениям
    Вы можете скачивать файлы