1 сезон

3 сезон

iTunes

1

Line

MVO

iTunes

13

1 сезон

RePack

30

Deluxe

pack

Лицензия

ВАЖНО

ИГРА 18+

pack

RePack

MK11

RePack

jed

RePack

fifa19

RePack

RDR2

RePack

NEED FOR SPEED™ PAYBACK

4 сезон

9 сезон

Бесстыжие 9 сезон

Все сериалы

все сериалы на PB.wtf

RePack

FAR CRY 5

Anonymous, добрый вечер, мы катастрофически не успеваем собрать деньги на оплату серверов, помогите нам пожалуйста 5,10,15р., для нас важна любая помощь . В качестве благодарности мы отключим Вам всю рекламу на сайте (укажите свой ник в строку Ваше имя)!

×
  
Magnet ссылка

Черный дрозд / Deadfall (Штефан Руцовицки / Stefan Ruzowitzky) [2012, триллер, драма, криминал, DVD5] R5 pb.wtf

Черный дрозд через торрент pb.wtf

Размер: 3.63 GB | Добавлен: 8 лет 5 мес. назад | Торрент скачан:119 раз
Скачать  

14-02-2013 09:42 Черный дрозд Скачать торрент  


Черный дрозд / Deadfall
«От прошлого не скрыться»
Страна: США
Студия: 2929 Productions, Madhouse Entertainment, Magnolia Pictures, Mutual Film Corporatio, StudioCanal
Жанр: триллер, драма, криминал
Год выпуска: 2012
Мировая премьера: 22 апреля 2012
Российская премьера: 13 декабря 2012
Дата выхода DVD: 21 февраля 2013
Продолжительность: 01:30:41
Перевод: Профессиональный (дублированный) [Лицензия]
Cубтитры: нет
Оригинальная аудиодорожка: нет
Режиссер: Штефан Руцовицки / Stefan Ruzowitzky
В ролях: Эрик Бана, Оливия Уайлд, Чарли Ханнэм, Сисси Спейсек, Крис Кристофферсон, Джейсон Кавалье, Кевин Десфоссес, Ален Голем, Эллисон Грэхэм, Патрик Кертон
Описание: Эддисон и Лайза в бегах после неудачного ограбления казино. Бывший боксер Джей направляется домой, чтобы провести День Благодарения в кругу семьи. Судьба неумолимо сводит этих людей, чтобы они встретили Зло и вступили в схватку с ним.
Бонусы: нет

Релиз группы:
Качество: DVD5 R5
Формат: DVD-Video
Видео кодек: MPEG2
Аудио кодек: AC3
Видео: PAL 16:9 (720x576(0.535)) MPEG Video, 25,000 кадр/сек, 5551 Кбит/сек
Аудио: Russian (Dolby AC3, 6 ch) 448 Кбит/сек, 48,0 КГц



Title: Chernyj.drozd.2012.DVD5
Size: 3.63 Gb ( 3 802 842,00 KBytes ) - DVD-5
Enabled regions: 1, 2, 3, 4, 5, 6, 7, 8

VTS_01 :
Play Length: 01:30:41
Video: PAL 16:9 (720x576) VBR, Auto Letterboxed
Audio:
Russian (Dolby AC3, 6 ch)

VTS_02 :
Play Length: 00:00:08
Video: PAL 4:3 (720x576) VBR

VTS_03 :
Play Length: 00:00:21
Video: PAL 16:9 (720x576) VBR, Auto Letterboxed
Audio:
English (Dolby AC3, 2 ch)

* Menus Information *

VIDEO_TS Menu
Video:
PAL 16:9 (720x576) VBR
Auto Letterboxed
Audio:
Not specified (Dolby AC3, 2 ch)
Russian Language Unit :
Title Menu

VTS_01 Menu
Video:
PAL 16:9 (720x576) VBR
Auto Letterboxed
Audio:
Not specified (Dolby AC3, 2 ch)
Russian Language Unit :
Root Menu
Chapter (PTT) Menu

VTS_02 Menu
Video:
NTSC 4:3 (720x480) VBR
Auto Pan&Scan, Auto Letterboxed
Language Unit :
Chapter (PTT) Menu

VTS_03 Menu
Video:
NTSC 4:3 (720x480) VBR
Auto Pan&Scan, Auto Letterboxed
Language Unit :
Chapter (PTT) Menu
Общее
Полное имя : J:Новинки 2012Chernyj.drozd.2012.DVD5VIDEO_TSVTS_01_1.VOB
Формат : MPEG-PS
Размер файла : 1024 Мбайт
Продолжительность : 23 м.
Режим общего битрейта : Переменный
Общий поток : 6121 Кбит/сек

Видео
Идентификатор : 224 (0xE0)
Формат : MPEG Video
Версия формата : Version 2
Профиль формата : Main@Main
Параметр BVOP формата : Да
Параметр матрицы формата : Выборочная
Параметр GOP формата : Variable
Продолжительность : 23 м.
Вид битрейта : Переменный
Битрейт : 5551 Кбит/сек
Максимальный битрейт : 8000 Кбит/сек
Ширина : 720 пикселей
Высота : 576 пикселей
Соотношение сторон : 16:9
Частота кадров : 25,000 кадров/сек
Стандарт вещания : PAL
Цветовое пространство : YUV
Субдискретизация насыщенности : 4:2:0
Битовая глубина : 8 бит
Тип развёртки : Чересстрочная
Порядок развёртки : Верхнее поле первое
Метод сжатия : С потерями
Бит/(Пиксели*Кадры) : 0.535
Размер потока : 929 Мбайт (91%)

Аудио
Идентификатор : 189 (0xBD)-128 (0x80)
Формат : AC-3
Формат/Информация : Audio Coding 3
Расширение режима : CM (complete main)
Параметр Endianness формата : Big
Режим смешивания : DVD-Video
Продолжительность : 23 м.
Вид битрейта : Постоянный
Битрейт : 448 Кбит/сек
Каналы : 6 каналов
Расположение каналов : Front: L C R, Side: L R, LFE
Частота : 48,0 КГц
Битовая глубина : 16 бит
Метод сжатия : С потерями
Размер потока : 74,9 Мбайт (7%)










pb.wtf



Скачать Черный дрозд через торрент http://i53.fastpic.ru/big/2013/0213/28/73404b04577df6ecc47aa269687e3828.jpg Скачать фильм Черный дрозд через торрент бесплантно в хорошем качестве Описание: Эддисон и Лайза в бегах после неудачного ограбления казино. Бывший боксер Джей направляется домой, чтобы провести День ... 9.5 10 2
Info! Золотая раздача, скачанное не засчитывается.
Торрент: Зарегистрирован [2013-02-14 09:42] · скачан: 119 раз
Статус: √ проверено
Размер: 3.63 GB
Как cкачать? Как скачать Черный дрозд через торрент | UTorrent

28-11-2019 20:33  

Отключить всю рекламу на сайте

14-02-2013 13:03 Черный дрозд Скачать торрент  

Фильм ни о чем! Унылое ...pb.wtf



14-02-2013 16:30 Черный дрозд Скачать торрент  

Название фильма не черный дрозд,мудак какой то придумал.А Западня в переводе DeadFall pb.wtf



    Дорогой пользователь! Огромная просьба, поблагодарите релизера, оцените раздачу и оставьте свои комментарий, если Вы скачали Черный дрозд через торрент бесплатно! Внесите свою лепту в развитие PiratBit!
    Комментировать посты могут только пользователи прошедшие не сложную регистрацию
    Показать сообщения:    

    Черный дрозд через торрент
    Скачать бесплатно Черный дрозд
    Черный дрозд скачать торрент
    Черный дрозд смотреть онлайн
    Cкачать фильм Черный дрозд бесплатно
    Черный дрозд скачать торрент в хорошем качестве
    Черный дрозд смотреть онлайн бесплатно в хорошем качестве


    Вы не можете начинать темы
    Вы не можете отвечать на сообщения
    Вы не можете редактировать свои сообщения
    Вы не можете удалять свои сообщения
    Вы не можете голосовать в опросах
    Вы не можете прикреплять файлы к сообщениям
    Вы можете скачивать файлы