Ссылка на приватное зеркало всего за 1$. Внимание количество ограничено!!!


iTunes

1+1

iTunes

мы

WEB-DL

1

iTunes

Чернобыль

iTunes

Ральф против интернета

Лицензия

ПШазам

Лицензия

Оно 2

WEB-DL

30
pack

Вам бонус

ВАЖНО

!!Акция!!

Alien_RageХит недели

RePack

Resident Evil 21

ИГРА 18+

pack

RePack

jed

!!Акция!!

Alien_Rage

RePack

fifa19

RePack

Assassins Creed: Odyssey

RePack

NEED FOR SPEED™ PAYBACK

4 сезон

9 сезон

Бесстыжие 9 сезон

Все сериалы

все сериалы на PB.wtf

RePack

FAR CRY 5
Ребята, катастрофически не хватает 1900р. для оплаты серверов за Октябрь (всвязи с блокировками трафик упал в 3 раза), 1-2р., выручайте.
  

Искатели приключений / Les aventuriers (Робер Энрико) [1967 г., драма, приключения, DVDRip, DUB] pb.wtf

Искатели приключений через торрент pb.wtf

Размер: 1.88 GB | Добавлен: 6 лет 9 мес. назад | Торрент скачан:18 раз
Скачать  

21-02-2013 01:58 Искатели приключений Скачать торрент  

Искатели приключений / Les aventuriers

Год выпуска: 1967
Страна: Франция, Италия
Жанр: драма, приключения
Продолжительность: 01:48:07
Перевод: Дублированный

Режиссер: Робер Энрико
Продюссер: Жерар Бейту, Рене Пиньер
Сценарий: Робер Энрико, Жозе Джованни, Пьер Пелегри

Премьера в мире: 12 апреля 1967





В ролях: Ален Делон, Лино Вентура, Джоанна Шимкус, Серж Реджани, Ганс Мейер, Жан Дарье, Жан Троньон, Одиль Пуассон, Ирен Тунк, Валерий Инкижинов, Владимир Гусев, Евгений Весник, Тамара Сёмина, Владимир Ферапонтов

Описание: Троицу отважных парижан одолевают сумасбродные мечты. Пролететь на самолете под Триумфальной аркой, например.Но даже такие устремления не останавливают их перед возможностью еще более рискованных приключений. Они отправляются к берегам Конго за ...сокровищами. Но там их ждет роковое столкновение...

Качество: DVDRip
Формат: MKV
Видео кодек: MPEG-4 AVC/H.264
Аудио кодек: AC3
Видео: 704x304 (2,35:1), 25.000 fps, AVC (High@L4.0) ~2300 kbps avg, 0.430 bit/pixel
Аудио#1: 48 kHz, AC3, 16 bits, 2 channels, ~192 kbps avg
Общее
Уникальный идентификатор : 196495447265502312593562669000085811148 (0x93D3A5866D3F5988BB6CD56923E12FCC)
Полное имя : C:VideoИскатели приключений.mkv
Формат : Matroska
Версия формата : Version 2
Размер файла : 1,88 Гбайт
Продолжительность : 1 ч. 48 м.
Общий поток : 2493 Кбит/сек
Дата кодирования : UTC 2013-02-17 10:42:33
Программа кодирования : mkvmerge v5.7.0 ('The Whirlwind') built on Jul 29 2012 15:12:35
Библиотека кодирования : libebml v1.2.3 + libmatroska v1.3.0

Видео
Идентификатор : 1
Формат : AVC
Формат/Информация : Advanced Video Codec
Профиль формата : High@L4.0
Параметр CABAC формата : Да
Параметр ReFrames формата : 5 кадров
Режим смешивания : Header stripping
Идентификатор кодека : V_MPEG4/ISO/AVC
Продолжительность : 1 ч. 48 м.
Битрейт : 2300 Кбит/сек
Ширина : 704 пикселя
Высота : 304 пикселя
Соотношение сторон : 2,35:1
Режим частоты кадров : Постоянный
Частота кадров : 25,000 кадров/сек
Цветовое пространство : YUV
Субдискретизация насыщенности : 4:2:0
Битовая глубина : 8 бит
Тип развёртки : Прогрессивная
Бит/(Пиксели*Кадры) : 0.430
Размер потока : 1,70 Гбайт (90%)
Заголовок : Les Aventuriers
Библиотека кодирования : x264 core 129 r2245 bc13772
Настройки программы : cabac=1 / ref=5 / deblock=1:0:0 / analyse=0x3:0x113 / me=umh / subme=8 / psy=1 / psy_rd=1.00:0.00 / mixed_ref=1 / me_range=16 / chroma_me=1 / trellis=1 / 8x8dct=1 / cqm=0 / deadzone=21,11 / fast_pskip=1 / chroma_qp_offset=-2 / threads=3 / lookahead_threads=1 / sliced_threads=0 / nr=0 / decimate=1 / interlaced=0 / bluray_compat=0 / constrained_intra=0 / bframes=3 / b_pyramid=2 / b_adapt=2 / b_bias=0 / direct=3 / weightb=1 / open_gop=0 / weightp=2 / keyint=250 / keyint_min=25 / scenecut=40 / intra_refresh=0 / rc_lookahead=50 / rc=2pass / mbtree=1 / bitrate=2300 / ratetol=1.0 / qcomp=0.60 / qpmin=0 / qpmax=69 / qpstep=4 / cplxblur=20.0 / qblur=0.5 / ip_ratio=1.40 / aq=1:1.00
Язык : French
Default : Да
Forced : Нет

Аудио
Идентификатор : 2
Формат : AC-3
Формат/Информация : Audio Coding 3
Расширение режима : CM (complete main)
Параметр Endianness формата : Big
Режим смешивания : Header stripping
Идентификатор кодека : A_AC3
Продолжительность : 1 ч. 48 м.
Вид битрейта : Постоянный
Битрейт : 192 Кбит/сек
Каналы : 2 канала
Расположение каналов : Front: L R
Частота : 48,0 КГц
Битовая глубина : 16 бит
Метод сжатия : С потерями
Размер потока : 148 Мбайт (8%)
Заголовок : Дублированный
Язык : Russian
Default : Да
Forced : Нет


Искатели приключений скачать торрент


pb.wtf



Скачать Искатели приключений через торрент http://i51.fastpic.ru/big/2013/0221/2a/69844e92d18cdad7008ae889c473272a.jpg Скачать фильм Искатели приключений через торрент бесплантно в хорошем качестве Описание: Троицу отважных парижан одолевают сумасбродные мечты. Пролететь на самолете под Триумфальной аркой, например.Но даже такие ... 10 10 3
Info! Золотая раздача, скачанное не засчитывается.
Торрент: Зарегистрирован [2013-02-21 01:58] · скачан: 18 раз
Статус: √ проверено
Размер: 1.88 GB
Как cкачать? Как скачать Искатели приключений через торрент | qTorrent

% Раздел Тема Автор DL S | L
Фильмы [HD 720p, 1080p] (Хороший звук DUB, MVO) [ 5.85 GB ] Искатели приключений / Les aventuriers [1967 BDRip 1080p HEVC +MVO+АVO] Мичман37 Скачать
1 | 0
Фильмы [HD 720p, 1080p] (Хороший звук DUB, MVO) [ 15 GB ] Искатели приключений / Les Aventuriers [1967 BDRip 1080p by msltel] DUB MVO AVO msltel Скачать
1 | 0
Фильмы [HD 720p, 1080p] (Хороший звук DUB, MVO) [ 5.16 GB ] Искатели приключений / Les Aventuriers [1967 BDRip 720p by msltel] DUB MVO AVO msltel Скачать
1 | 0
Фильмы до 2000 г. [ 1.45 GB ] Искатели приключений / Les Aventuriers [1967 г BDRip] DUB koenig Скачать
3 | 0

28-11-2019 20:33  

Отключить всю рекламу на сайте

13-01-2014 16:30 Искатели приключений Скачать торрент  

Скорости пли-з-з!!!pb.wtf



    Дорогой пользователь! Огромная просьба, поблагодарите релизера, оцените раздачу и оставьте свои комментарий, если Вы скачали Искатели приключений через торрент бесплатно! Внесите свою лепту в развитие PiratBit!
    Комментировать посты могут только пользователи прошедшие не сложную регистрацию
    Показать сообщения:    

    Искатели приключений через торрент
    Скачать бесплатно Искатели приключений
    Искатели приключений скачать торрент
    Искатели приключений смотреть онлайн
    Cкачать фильм Искатели приключений бесплатно
    Искатели приключений скачать торрент в хорошем качестве
    Искатели приключений смотреть онлайн бесплатно в хорошем качестве


    Вы не можете начинать темы
    Вы не можете отвечать на сообщения
    Вы не можете редактировать свои сообщения
    Вы не можете удалять свои сообщения
    Вы не можете голосовать в опросах
    Вы не можете прикреплять файлы к сообщениям
    Вы можете скачивать файлы