Ссылка на приватное зеркало нашего сайта всего за 1$. Внимание количество ограничено!!!

2 сезон

iTunes

1 сезон

1

iTunes

iTunes

iTunes

1 сезон

RePack

30

ИГРА 18+

pack

ВАЖНО

!!Акция!!

Alien_RageХит недели

RePack

MK11
pack

Забери бонус

RePack

jed

!!Акция!!

Alien_Rage

RePack

fifa19

RePack

Assassins Creed: Odyssey

RePack

NEED FOR SPEED™ PAYBACK

4 сезон

9 сезон

Бесстыжие 9 сезон

Все сериалы

все сериалы на PB.wtf

RePack

FAR CRY 5
  

Срочная доставка / Premium Rush (Дэвид Кепп) [2012 г., боевик, триллер, BDRip 720p, MVO, лицензия] pb.wtf

Срочная доставка через торрент pb.wtf

Размер: 4.94 GB | Добавлен: 7 лет 8 мес. назад | Торрент скачан:58 раз
Скачать  

21-02-2013 04:46 Срочная доставка Скачать торрент  

Срочная доставка / Premium Rush
«Ride Like Hell»

Год выпуска: 2012
Страна: США
Жанр: боевик, триллер
Продолжительность: 01:30:57
Перевод: Профессиональный многоголосый, Лицензия
Русские субтитры: есть

Режиссер: Дэвид Кепп
Продюссер: Гэвин Полон, Мэри-Джо Уинклер
Сценарий: Дэвид Кепп, Джон Кэмпс

Бюджет: $35 000 000

Мировой рейтинг IMDB 6.50 (38 573)


В ролях: Джозеф Гордон-Левитт, Майкл Шеннон, Дания Рамирез, Джейми Чунг, Шон Кеннеди, Ким Перфетто, Энтони Чишолм, Эшли Остин Моррис, Уоли Паркс, Кевин Болджер


Описание: Нью-йоркский посыльный в один прекрасный день забирает некий конверт в Колумбийском университете. Но оказывается, что содержимое послания очень интересует одного коррумпированного полицейского, который начинает преследование героя.

Качество: BDRip 720p
Формат: MKV
Видео кодек: H.26x
Аудио кодек: AC3
Видео: 1280x534 (2.40:1), ~ 6496 kbps avg, 23.976 fps, High Profile 4.1
Аудио 1: AC3, 48 kHz, 3/2 (L,C,R,l,r) + LFE ch, ~640 kbps avg [Russian] |MVO, лицензия|
Аудио 2: AC3, 48 kHz, 3/2 (L,C,R,l,r) + LFE ch, ~640 kbps avg [English]
Субтитры: Russian, Ukrainian, English, English




Общее
Уникальный идентификатор : 244341587050210994696265899931995566005 (0xB7D27A58B274770FA9D2ABD3F3856FB5)
Полное имя : E:Срочная доставка.2012.Blu-ray.720p..mkv
Формат : Matroska
Версия формата : Version 2
Размер файла : 4,94 Гбайт
Продолжительность : 1 ч. 30 м.
Общий поток : 7778 Кбит/сек
Название фильма : HANSMER
Дата кодирования : UTC 2012-11-29 09:05:21
Программа кодирования : mkvmerge v5.8.0 ('No Sleep / Pillow') built on Sep 2 2012 15:37:04
Библиотека кодирования : libebml v1.2.3 + libmatroska v1.3.0

Видео
Идентификатор : 1
Формат : AVC
Формат/Информация : Advanced Video Codec
Профиль формата : High@L4.1
Параметр CABAC формата : Да
Параметр ReFrames формата : 12 кадров
Идентификатор кодека : V_MPEG4/ISO/AVC
Продолжительность : 1 ч. 30 м.
Битрейт : 6500 Кбит/сек
Ширина : 1280 пикселей
Высота : 534 пикселя
Соотношение сторон : 2,40:1
Режим частоты кадров : Постоянный
Частота кадров : 23,976 кадра/сек
Цветовое пространство : YUV
Субдискретизация насыщенности : 4:2:0
Битовая глубина : 8 бит
Тип развёртки : Прогрессивная
Бит/(Пиксели*Кадры) : 0.397
Размер потока : 4,03 Гбайт (82%)
Библиотека кодирования : x264 core 129 r2230 1cffe9f
Настройки программы : cabac=1 / ref=12 / deblock=1:-3:-3 / analyse=0x3:0x113 / me=tesa / subme=11 / psy=1 / psy_rd=1.00:0.00 / mixed_ref=1 / me_range=24 / chroma_me=1 / trellis=2 / 8x8dct=1 / cqm=0 / deadzone=21,11 / fast_pskip=0 / chroma_qp_offset=-2 / threads=12 / lookahead_threads=2 / sliced_threads=0 / nr=0 / decimate=0 / interlaced=0 / bluray_compat=0 / constrained_intra=0 / bframes=7 / b_pyramid=2 / b_adapt=2 / b_bias=0 / direct=3 / weightb=1 / open_gop=0 / weightp=2 / keyint=240 / keyint_min=24 / scenecut=40 / intra_refresh=0 / rc_lookahead=60 / rc=2pass / mbtree=0 / bitrate=6500 / ratetol=1.0 / qcomp=0.70 / qpmin=0 / qpmax=69 / qpstep=4 / cplxblur=20.0 / qblur=0.5 / vbv_maxrate=50000 / vbv_bufsize=62500 / nal_hrd=none / ip_ratio=1.30 / pb_ratio=1.20 / aq=1:0.90
Язык : English
Default : Да
Forced : Нет
Коэффициенты матрицы : BT.709

Аудио #1
Идентификатор : 2
Формат : AC-3
Формат/Информация : Audio Coding 3
Расширение режима : CM (complete main)
Параметр Endianness формата : Big
Идентификатор кодека : A_AC3
Продолжительность : 1 ч. 30 м.
Вид битрейта : Постоянный
Битрейт : 640 Кбит/сек
Каналы : 6 каналов
Расположение каналов : Front: L C R, Side: L R, LFE
Частота : 48,0 КГц
Битовая глубина : 16 бит
Метод сжатия : С потерями
Размер потока : 416 Мбайт (8%)
Язык : Russian
Default : Да
Forced : Нет

Аудио #2
Идентификатор : 3
Формат : AC-3
Формат/Информация : Audio Coding 3
Расширение режима : CM (complete main)
Параметр Endianness формата : Big
Идентификатор кодека : A_AC3
Продолжительность : 1 ч. 30 м.
Вид битрейта : Постоянный
Битрейт : 640 Кбит/сек
Каналы : 6 каналов
Расположение каналов : Front: L C R, Side: L R, LFE
Частота : 48,0 КГц
Битовая глубина : 16 бит
Метод сжатия : С потерями
Размер потока : 416 Мбайт (8%)
Язык : English
Default : Нет
Forced : Нет

Текст #1
Идентификатор : 4
Формат : UTF-8
Идентификатор кодека : S_TEXT/UTF8
Идентификатор кодека/Информация : UTF-8 Plain Text
Язык : Russian
Default : Нет
Forced : Нет

Текст #2
Идентификатор : 5
Формат : UTF-8
Идентификатор кодека : S_TEXT/UTF8
Идентификатор кодека/Информация : UTF-8 Plain Text
Язык : English
Default : Нет
Forced : Нет

Текст #3
Идентификатор : 6
Формат : UTF-8
Идентификатор кодека : S_TEXT/UTF8
Идентификатор кодека/Информация : UTF-8 Plain Text
Заголовок : Forced
Язык : English
Default : Нет
Forced : Нет

Меню
00:00:00.000 : en:Chapter 1
00:05:43.301 : en:Chapter 2
00:10:33.675 : en:Chapter 3
00:19:39.845 : en:Chapter 4
00:22:41.402 : en:Chapter 5
00:28:54.107 : en:Chapter 6
00:33:01.563 : en:Chapter 7
00:37:37.172 : en:Chapter 8
00:44:25.413 : en:Chapter 9
00:50:52.758 : en:Chapter 10
00:55:17.773 : en:Chapter 11
00:58:40.600 : en:Chapter 12
01:02:10.936 : en:Chapter 13
01:09:15.234 : en:Chapter 14
01:15:52.757 : en:Chapter 15
01:22:29.862 : en:Chapter 16


Срочная доставка скачать торрент


pb.wtf



Скачать Срочная доставка через торрент http://pic.kartinco.top/images/1/eyq78m9ktn.png Скачать фильм Срочная доставка через торрент бесплантно в хорошем качестве Описание: Нью-йоркский посыльный в один прекрасный день забирает некий конверт в Колумбийском университете. Но оказывается, что содержимое ... 10 10 2
Info! Золотая раздача, скачанное не засчитывается.
Торрент: Зарегистрирован [2013-02-21 04:46] · скачан: 58 раз
Статус: √ проверено
Размер: 4.94 GB
Как cкачать? Как скачать Срочная доставка через торрент | qTorrent

% Раздел Тема Автор DL S | L
Фильмы 2012 [ 1.46 GB ] Срочная доставка / Premium Rush [2012 BDRip-AVC] MVO Rzhavec Скачать
1 | 0
Фильмы 2012 [ 1.37 GB ] Срочная доставка / Premium Rush [2012 DVDRip MVO лицензия] gnev78 Скачать
1 | 0
Фильмы [HD 720p, 1080p] (Хороший звук DUB, MVO) [ 8.04 GB ] Срочная доставка / Premium Rush [2012 BDRip 1080p MVO лицензия] Ke$h@ Скачать
1 | 0
Фильмы 2012 [ 2.18 GB ] Срочная доставка / Premium Rush [2012 BDRip-AVC] MVO + Original + Sub potroks Скачать
1 | 0
Фильмы 2012 [ 3.31 GB ] Срочная доставка / Premium Rush [2012 BDRip MVO лицензия] + Orig + Sub slaventi-69 Скачать
1 | 0
Фильмы 2012 [ 1.46 GB ] Срочная доставка / Premium Rush [2012 / / HDRip / MVO [ лицензия ]] akcent Скачать
1 | 0
Фильмы 2012 [ 700 MB ] Срочная доставка / Premium Rush [2012 HDRip MVO лицензия] JhaWithYou Скачать
1 | 0


Последний раз редактировалось: Ke$h@ (2013-02-21 04:55), всего редактировалось 1 раз

28-11-2019 20:33  

Отключить всю рекламу на сайте

21-02-2013 04:51 Срочная доставка Скачать торрент  

Фильм по моему мнению 6 из10!!!pb.wtf



    Дорогой пользователь! Огромная просьба, поблагодарите релизера, оцените раздачу и оставьте свои комментарий, если Вы скачали Срочная доставка через торрент бесплатно! Внесите свою лепту в развитие PiratBit!
    Комментировать посты могут только пользователи прошедшие не сложную регистрацию
    Показать сообщения:    

    Срочная доставка через торрент
    Скачать бесплатно Срочная доставка
    Срочная доставка скачать торрент
    Срочная доставка смотреть онлайн
    Cкачать фильм Срочная доставка бесплатно
    Срочная доставка скачать торрент в хорошем качестве
    Срочная доставка смотреть онлайн бесплатно в хорошем качестве


    Вы не можете начинать темы
    Вы не можете отвечать на сообщения
    Вы не можете редактировать свои сообщения
    Вы не можете удалять свои сообщения
    Вы не можете голосовать в опросах
    Вы не можете прикреплять файлы к сообщениям
    Вы можете скачивать файлы