Ссылка на приватное зеркало нашего сайта всего за 1$. Внимание количество ограничено!!!

2 сезон

iTunes

1 сезон

1

2 сезон

2 сезон

iTunes

1 сезон

RePack

30

Ultimate

ВАЖНО

ИГРА 18+

pack

RePack

MK11
pack

Забери бонус

RePack

jed

!!Акция!!

Alien_Rage

RePack

fifa19

RePack

Assassins Creed: Odyssey

RePack

NEED FOR SPEED™ PAYBACK

4 сезон

9 сезон

Бесстыжие 9 сезон

Все сериалы

все сериалы на PB.wtf

RePack

FAR CRY 5
  

Джекпот / Arme Riddere (Магнус Мартенс) [2011 г., боевик, комедия, криминал, Blu-Ray Remux (1080p), MVO, лицензия] pb.wtf

Джекпот через торрент pb.wtf

Размер: 17.83 GB | Добавлен: 7 лет 9 мес. назад | Торрент скачан:45 раз
Скачать  

23-02-2013 09:43 Джекпот Скачать торрент  





Джекпот / Arme Riddere



Год выпуска: 2011
Страна: Норвегия
Жанр: боевик, комедия, криминал
Продолжительность: 01:25:35
Перевод: Профессиональный многоголосый, Лицензия

Режиссер: Магнус Мартенс
Продюссер: Арье Хейденстром, Мартин Сандлэнд, Хьюго Хагеманн Фёскер
Сценарий: Магнус Мартенс, Ю Несбё

Мировой рейтинг IMDB 6.50 (763)


В ролях: Кюрре Хеллум, Мэдс Оусдаль, Хенрик Местад, Артур Бернинг, Андреас Каппелен, Лена Эллингсен, Фридтьов Сохейм, Петер Андерссон, Ян Гронли, Мари Блокхус

Описание: Испуганный и окровавленный, Оскар Свендсен просыпается с ружьём в руках в сомнительном заведении. Вокруг него 8 трупов и полиция, направляющаяся к нему. Оскар знает, что он невиновен. А всё началось с того, что четыре парня выиграли 1,7 миллиона в лотерею...

Качество: Blu-Ray Remux (1080p)
Формат: BDAV
Видео кодек: AVC
Аудио кодек: AC3
Видео: MPEG-4 AVC, 22.9 Mбит/с, 1920x1080,24,000 кадра/сек
Аудио#1: Русский (АС3, 6 ch, 448 Кбит/с),48,0 КГц
Аудио#2: Норвежский (DTS-HD MA, 6 ch, 3941 Кбит/с), (АС3, 6 ch, 640 Кбит/с), (АС3, 2 ch, 224 Кбит/с),48,0 КГц
Cубтитры: Русские, норвежские
Общее
Идентификатор: 1 (0x1)
Полное имя: D:торренты1ARME_RIDDEREBDMVSTREAM�0000.m2ts
Формат: BDAV
Формат/Информация: Blu-ray Video
Размер файла: 17,8 Гбайт
Продолжительность: 1 ч. 25 м.
Режим общего битрейта: Переменный
Общий поток: 29,8 Мбит/сек
Максимальный общий битрейт: 35,5 Мбит/сек

Видео
Идентификатор: 4113 (0x1011)
Идентификатор меню: 1 (0x1)
Формат: AVC
Формат/Информация: Advanced Video Codec
Профиль формата: High@L4.1
Параметр CABAC формата: Да
Параметр ReFrames формата: 3 кадра
Идентификатор кодека: 27
Продолжительность: 1 ч. 25 м.
Вид битрейта: Переменный
Номинальный битрейт: 23,0 Мбит/сек
Максимальный битрейт: 38,0 Мбит/сек
Ширина: 1920 пикселей
Высота: 1080 пикселей
Соотношение сторон: 16:9
Частота кадров: 24,000 кадра/сек
Цветовое пространство: YUV
Субдискретизация насыщенности: 4:2:0
Битовая глубина: 8 бит
Тип развёртки: Прогрессивная
Бит/(Пиксели*Кадры): 0.462
Библиотека кодирования: x264 core 116 r2074 2641b9e
Настройки программы: cabac=1 / ref=4 / deblock=1:-1:-1 / analyse=0x3:0x133 / me=umh / subme=10 / psy=1 / psy_rd=1.00:0.15 / mixed_ref=1 / me_range=24 / chroma_me=1 / trellis=2 / 8x8dct=1 / cqm=0 / deadzone=21,11 / fast_pskip=1 / chroma_qp_offset=-3 / threads=36 / sliced_threads=0 / slices=4 / nr=0 / decimate=1 / interlaced=0 / bluray_compat=1 / constrained_intra=0 / bframes=3 / b_pyramid=1 / b_adapt=2 / b_bias=0 / direct=3 / weightb=1 / open_gop=1 / weightp=1 / keyint=24 / keyint_min=2 / scenecut=40 / intra_refresh=0 / rc_lookahead=24 / rc=2pass / mbtree=1 / bitrate=23000 / ratetol=1.0 / qcomp=0.60 / qpmin=0 / qpmax=69 / qpstep=4 / cplxblur=20.0 / qblur=0.5 / vbv_maxrate=38000 / vbv_bufsize=30000 / nal_hrd=vbr / ip_ratio=1.40 / aq=1:1.00
Основные цвета: BT.709
Характеристики трансфера: BT.709
Коэффициенты матрицы: BT.709

Аудио #1
Идентификатор: 4352 (0x1100)
Идентификатор меню: 1 (0x1)
Формат: AC-3
Формат/Информация: Audio Coding 3
Расширение режима: CM (complete main)
Параметр Endianness формата: Big
Идентификатор кодека: 129
Продолжительность: 1 ч. 25 м.
Вид битрейта: Постоянный
Битрейт: 448 Кбит/сек
Каналы: 6 каналов
Расположение каналов: Front: L C R, Side: L R, LFE
Частота: 48,0 КГц
Битовая глубина: 16 бит
Метод сжатия: С потерями
Размер потока: 274 Мбайт (2%)
Язык: Russian

Аудио #2
Идентификатор: 4353 (0x1101)
Идентификатор меню: 1 (0x1)
Формат: AC-3
Формат/Информация: Audio Coding 3
Расширение режима: CM (complete main)
Параметр Endianness формата: Big
Идентификатор кодека: 129
Продолжительность: 1 ч. 25 м.
Вид битрейта: Постоянный
Битрейт: 640 Кбит/сек
Каналы: 6 каналов
Расположение каналов: Front: L C R, Side: L R, LFE
Частота: 48,0 КГц
Битовая глубина: 16 бит
Метод сжатия: С потерями
Размер потока: 392 Мбайт (2%)
Язык: Norwegian

Аудио #3
Идентификатор: 4354 (0x1102)
Идентификатор меню: 1 (0x1)
Формат: DTS
Формат/Информация: Digital Theater Systems
Профиль формата: MA / Core
Режим: 16
Параметр Endianness формата: Big
Режим смешивания: Stream extension
Идентификатор кодека: 134
Продолжительность: 1 ч. 25 м.
Вид битрейта: Переменный
Битрейт: Неизвестно / 1509 Кбит/сек
Каналы: 6 каналов
Расположение каналов: Front: L C R, Side: L R, LFE
Частота: 48,0 КГц
Битовая глубина: 24 бит
Метод сжатия: Без потерь / Lossy
Язык: Norwegian

Аудио #4
Идентификатор: 4355 (0x1103)
Идентификатор меню: 1 (0x1)
Формат: AC-3
Формат/Информация: Audio Coding 3
Расширение режима: CM (complete main)
Параметр Endianness формата: Big
Идентификатор кодека: 129
Продолжительность: 1 ч. 25 м.
Вид битрейта: Постоянный
Битрейт: 224 Кбит/сек
Каналы: 2 канала
Расположение каналов: Front: L R
Частота: 48,0 КГц
Битовая глубина: 16 бит
Метод сжатия: С потерями
Размер потока: 137 Мбайт (1%)
Язык: Norwegian

Текст #1
Идентификатор: 4608 (0x1200)
Идентификатор меню: 1 (0x1)
Формат: PGS
Идентификатор кодека: 144
Язык: Russian

Текст #2
Идентификатор: 4609 (0x1201)
Идентификатор меню: 1 (0x1)
Формат: PGS
Идентификатор кодека: 144
Язык: Norwegian


Джекпот скачать торрент


pb.wtf



Скачать Джекпот через торрент http://i52.fastpic.ru/big/2013/0223/d2/09a2cd93e297b76d1bef2e94c4071fd2.jpg Скачать фильм Джекпот через торрент бесплантно в хорошем качестве Описание: Испуганный и окровавленный, Оскар Свендсен просыпается с ружьём в руках в сомнительном заведении. Вокруг него 8 трупов и полиция, ... 5 10 1
Info! Золотая раздача, скачанное не засчитывается.
Торрент: Зарегистрирован [2013-02-23 09:43] · скачан: 45 раз
Статус: √ проверено
Размер: 17.83 GB
Как cкачать? Как скачать Джекпот через торрент | qTorrent

% Раздел Тема Автор DL S | L
Фильмы 2011 [ 1.84 GB ] Джекпот / Arme Riddere [2011 BDRip-AVC MVO+Оригинал лицензия] Sудья Скачать
1 | 0
Фильмы 2011 [ 1.37 GB ] Джекпот / Arme Riddere [2011 HDRip MVO лицензия] кэп Скачать
1 | 0


Последний раз редактировалось: Вор в законе (2013-02-23 12:52), всего редактировалось 1 раз

28-11-2019 20:33  

Отключить всю рекламу на сайте

23-02-2013 12:35 Джекпот Скачать торрент  

Вор в законе
Укажи частоту видео и аудиоpb.wtf



    Дорогой пользователь! Огромная просьба, поблагодарите релизера, оцените раздачу и оставьте свои комментарий, если Вы скачали Джекпот через торрент бесплатно! Внесите свою лепту в развитие PiratBit!
    Комментировать посты могут только пользователи прошедшие не сложную регистрацию
    Показать сообщения:    

    Джекпот через торрент
    Скачать бесплатно Джекпот
    Джекпот скачать торрент
    Джекпот смотреть онлайн
    Cкачать фильм Джекпот бесплатно
    Джекпот скачать торрент в хорошем качестве
    Джекпот смотреть онлайн бесплатно в хорошем качестве


    Вы не можете начинать темы
    Вы не можете отвечать на сообщения
    Вы не можете редактировать свои сообщения
    Вы не можете удалять свои сообщения
    Вы не можете голосовать в опросах
    Вы не можете прикреплять файлы к сообщениям
    Вы можете скачивать файлы