новый адрес
Ссылка на приватное зеркало всего за 1$. Внимание количество ограничено!!!

iTunes

1+1

iTunes

мы

iTunes

1

iTunes

Чернобыль

iTunes

Ральф против интернета

Лицензия

ПШазам

Лицензия

Оно 2

Лицензия

30
pack

Вам бонус

ВАЖНО

!!Акция!!

Alien_RageХит недели

RePack

Resident Evil 21

ИГРА 18+

pack

RePack

jed

!!Акция!!

Alien_Rage

RePack

fifa19

RePack

Assassins Creed: Odyssey

RePack

NEED FOR SPEED™ PAYBACK

3 сезон

9 сезон

Бесстыжие 9 сезон

Все сериалы

все сериалы на PB.wtf

RePack

FAR CRY 5
Ребята, катастрофически не хватает 1900р. для оплаты серверов за Октябрь (всвязи с блокировками трафик упал в 3 раза), 1-2р., выручайте.
  

Охота / Jagten (Томас Винтерберг) [2012 г., драма, WEB-DLRip, MVO] pb.wtf

Охота через торрент pb.wtf

Размер: 1.24 GB | Добавлен: 6 лет 9 мес. назад | Торрент скачан:205 раз
Скачать  

23-02-2013 12:50 Охота Скачать торрент  

Охота / Jagten

Год выпуска: 2012
Страна: Дания
Жанр: драма
Продолжительность: 01:50:39
Перевод: Любительский многоголосый

Режиссер: Томас Винтерберг
Продюссер: Сиссе Граум Олсен, Мортен Кауфман, Томас Винтерберг
Сценарий: Тобиас Линдхольм, Томас Винтерберг

Мировой рейтинг IMDB 8.30 (4 617)


В ролях: Мадс Миккельсен, Томас Бо Ларсен, Анника Веддеркопп, Лассе Фогельстрём, Суссе Уолд, Анне Луизе Хассинг, Ларс Ранте, Александра Рапапорт, Оле Дюпон, Рикке Бергманн

Описание: После мучительного развода 40-летний Лукас находит новую подругу, новую работу и стремится восстановить отношения со своим сыном-подростком Маркусом. Но ему что-то мешает... Что-то, казалось бы, незначительное. Замечание, сделанное между прочим. Мелкая ложь. И вот накануне Рождества, когда падает снег и зажигаются огни на елке, ложь разрастается и проникает повсюду, как невидимый вирус. Растет недоверие, и все вокруг оказываются в состоянии коллективной истерии. Лукас вынужден бороться за свою жизнь и достоинство.

Качество: WEB-DLRip
Формат: AVI
Видео кодек: XviD
Аудио кодек: MP3
Видео: 704x300 , 25.000 fps, XviD, ~1 338 Kbps, ~0.060 bit/pixel
Аудио#1: 48.0 KHz, MP3 , 2 (ch), ~256 Kbps
скриншот  скриншот  скриншот  скриншот  





General
Complete name : E:Jagten.2012.P.WEB-DLRip.avi
Format : AVI
Format/Info : Audio Video Interleave
Format profile : OpenDML
File size : 1.24 GiB
Duration : 1h 50mn
Overall bit rate : 1 610 Kbps
Writing application : Lavf52.31.0

Video
ID : 0
Format : MPEG-4 Visual
Format profile : Simple@L3
Format settings, BVOP : No
Format settings, QPel : No
Format settings, GMC : No warppoints
Format settings, Matrix : Default (H.263)
Codec ID : XVID
Codec ID/Hint : XviD
Duration : 1h 50mn
Bit rate : 1 338 Kbps
Width : 704 pixels
Height : 300 pixels
Display aspect ratio : 2.35:1
Frame rate : 25.000 fps
Color space : YUV
Chroma subsampling : 4:2:0
Bit depth : 8 bits
Scan type : Progressive
Compression mode : Lossy
Bits/(Pixel*Frame) : 0.253
Stream size : 1.03 GiB (83%)
Writing library : XviD 1.3.0.dev55

Audio
ID : 1
Format : MPEG Audio
Format version : Version 1
Format profile : Layer 3
Mode : Joint stereo
Mode extension : MS Stereo
Codec ID : 55
Codec ID/Hint : MP3
Duration : 1h 50mn
Bit rate mode : Constant
Bit rate : 256 Kbps
Channel(s) : 2 channels
Sampling rate : 48.0 KHz
Compression mode : Lossy
Stream size : 203 MiB (16%)
Alignment : Aligned on interleaves
Interleave, duration : 24 ms (0.60 video frame)
Interleave, preload duration : 96 ms


Охота скачать торрент


pb.wtf



Скачать Охота через торрент http://pic.kartinco.top/images/2/bwsknivdig.jpg Скачать фильм Охота через торрент бесплантно в хорошем качестве Описание: После мучительного развода 40-летний Лукас находит новую подругу, новую работу и стремится восстановить отношения со своим ... 10 10 2
Info! Золотая раздача, скачанное не засчитывается.
Торрент: Зарегистрирован [2013-02-23 12:50] · скачан: 205 раз
Статус: √ проверено
Размер: 1.24 GB
Как cкачать? Как скачать Охота через торрент | qTorrent

% Раздел Тема Автор DL S | L
Фильмы (Blu-ray, BD-Remux, HDDVD) [ 32.08 GB ] Охота / Jagten [2012 BDRemux 1080p / US Transfer / ] Ворон Скачать
1 | 0
Фильмы [HD 720p, 1080p] (Хороший звук DUB, MVO) [ 3.67 GB ] Охота / Jagten / The Hunt [2012 BDRip 720p] MVO от R.G. PiratFilms XLASER Скачать
1 | 0
Арт-хаус и авторское кино [ 1.46 GB ] Охота / Jagten [2012 HDRip MVO] Seedtank Скачать
1 | 0
Арт-хаус и авторское кино [ 4.71 GB ] Охота / The Hunt / Jagten [2012 BDRip 720p] diletant Скачать
1 | 0
Арт-хаус и авторское кино [ 8.81 GB ] Охота / Jagten [2012 Психологическая BDRip 1080p + Оригинал] Trava-HD Скачать
1 | 2
Арт-хаус и авторское кино [ 2.18 GB ] Охота / Jagten [2012 HDRip MVO] Seedtank Скачать
1 | 0
Отключить всю рекламу на сайте

23-02-2013 18:59 Охота Скачать торрент  

Спасибо аффтор!pb.wtf



    Дорогой пользователь! Огромная просьба, поблагодарите релизера, оцените раздачу и оставьте свои комментарий, если Вы скачали Охота через торрент бесплатно! Внесите свою лепту в развитие PiratBit!
    Комментировать посты могут только пользователи прошедшие не сложную регистрацию
    Показать сообщения:    

    Охота через торрент
    Скачать бесплатно Охота
    Охота скачать торрент
    Охота смотреть онлайн
    Cкачать фильм Охота бесплатно
    Охота скачать торрент в хорошем качестве
    Охота смотреть онлайн бесплатно в хорошем качестве


    Вы не можете начинать темы
    Вы не можете отвечать на сообщения
    Вы не можете редактировать свои сообщения
    Вы не можете удалять свои сообщения
    Вы не можете голосовать в опросах
    Вы не можете прикреплять файлы к сообщениям
    Вы можете скачивать файлы