Ссылка на приватное зеркало нашего сайта всего за 1$. Внимание количество ограничено!!!

2 сезон

iTunes

1 сезон

1

iTunes

iTunes

iTunes

1 сезон

RePack

30

ИГРА 18+

pack

ВАЖНО

!!Акция!!

Alien_RageХит недели

RePack

MK11
pack

Забери бонус

RePack

jed

!!Акция!!

Alien_Rage

RePack

fifa19

RePack

Assassins Creed: Odyssey

RePack

NEED FOR SPEED™ PAYBACK

4 сезон

9 сезон

Бесстыжие 9 сезон

Все сериалы

все сериалы на PB.wtf

RePack

FAR CRY 5
  

Морские дьяволы / 1-5 сезоны \ 1-108 серий из 108(Алексей Гусев, Вадим Саетгалиев, Александр Картохин) [2005-2011 г., Боевик, Военный, Детектив, Драма, Криминал, DVDRip, SATRip, Оригинал] pb.wtf

Морские дьяволы через торрент pb.wtf

Качают: 2 [ 0 KB/s ]
Размер: 48.23 GB | Добавлен: 7 лет 7 мес. назад | Торрент скачан:124 раза
Скачать  

24-02-2013 08:15 Морские дьяволы Скачать торрент  

Год выпуска: 2005-2011
Страна: Россия
Жанр: Боевик, Военный, Детектив, Драма, Криминал, Приключения
Продолжительность: Серия ~ 00:41:00
Перевод: Оригинал

Режиссер
Алексей Гусев, Вадим Саетгалиев, Александр Картохин, Виктор Шкуратов, Валерий Ибрагимов, Кирилл Капица, Алексей Праздников, Алексей Шикин, Максим Кубринский, Сергей Васильев, Станислав Дремов
В ролях
Олег Чернов, Дарья Юргенс, Иван Паршин, Виталий Коваленко, Анатолий Рудаков, Владимир Маслаков, Евгений Ганелин, Максим Селютин, Кирилл Капица, Михаил Черняк, Антон Гуляев, Владимир Ярош

Описание:
Их четверо. Они — бойцы спецназа. Их называют «морскими дьяволами», хотя по праву их можно считать рыцарями трех стихий: они действуют на земле, в воде и в воздухе. У каждого из них свой характер и своя судьба, но каждый полон решимости выполнить свой профессиональный долг, невзирая на риск. Понятия «братство», «дружба», «офицерская честь» — для них не просто абстракция, а то, чем они дорожат и ради чего готовы пожертвовать жизнью.
Описание:
Это фильм об элите спецназа - боевых пловцах ВМФ России. О том как, проводятся секретные спецоперации на море и на территориях иностранных государств. У каждого задания имеется своя политическая подоплека. Мы увидим, как воплощаются в жизнь государственные интересы России. В действие вовлечены все - от самых вершин власти - на уровне Генерального штаба и дипломатических миссий - до рядового матроса срочной службы. В центре повествования четверка «мушкетеров» - отряд особого назначения «Морские дьяволы». У каждого из них есть оперативный псевдоним, который как прозвище крепко «прилип» к нему. Они появляются из-под воды там, где их никто не ждет. Они выживают в самых неблагоприятных условиях. Под водой им противодействуют водолазы противника, а также дрессированные дельфины-убийцы. Против пловцов ставят специальные заграждения. И это только краткий перечень того, с чем сталкиваются «Морские дьяволы» по роду службы.
Формат: AVI
Видеокодек: XviD
Аудиокодек: AC3
Видео: 1132 Кбит/сек, 640*384 (1,667), в 25,0000 кадров/сек, MPEG-4 Visual (XviD) (Simple@L3)
Аудио: 224 Кбит/сек, 48,0 Кгц, 2 канала,АС-3
Формат : AVI
Формат/Информация : Audio Video Interleave
Размер файла : 402 Мбайт
Продолжительность : 44 м.
Общий поток : 1267 Кбит/сек

Видео
Идентификатор : 0
Формат : MPEG-4 Visual
Профиль формата : Simple@L3
Параметр BVOP формата : Нет
Параметр QPel формата : Нет
Параметр GMC формата : Без точки перехода
Параметр матрицы формата : Default (H.263)
Идентификатор кодека : XVID
Идентификатор кодека/Подсказка : XviD
Продолжительность : 44 м.
Продолжительность оригинала : 44 м.
Битрейт : 1032 Кбит/сек
Ширина : 640 пикселей
Высота : 384 пикселя
Соотношение сторон : 1,667
Частота кадров : 25,000 кадров/сек
Цветовое пространство : YUV
Субдискретизация насыщенности : 4:2:0
Битовая глубина : 8 бит
Тип развёртки : Прогрессивная
Метод сжатия : С потерями
Бит/(Пиксели*Кадры) : 0.168
Размер потока : 328 Мбайт (81%)
Библиотека кодирования : XviD 1.1.2 (UTC 2006-11-01)

Аудио
Идентификатор : 1
Формат : AC-3
Формат/Информация : Audio Coding 3
Расширение режима : CM (complete main)
Параметр Endianness формата : Big
Идентификатор кодека : 2000
Продолжительность : 44 м.
Вид битрейта : Постоянный
Битрейт : 224 Кбит/сек
Каналы : 2 канала
Расположение каналов : Front: L R
Частота : 48,0 КГц
Битовая глубина : 16 бит
Метод сжатия : С потерями
Размер потока : 71,1 Мбайт (18%)
Выравнивание : Соединение по промежуткам
Продолжительность промежутка : 32 мс. (0,80 видеокадр)
скриншот   скриншот   скриншот  
Описание:
Продолжение остросюжетного сериала, представляющего собой героическую сагу о российских элитных подразделениях боевых пловцов, которые по праву считаются «рыцарями трех стихий». Они действуют на земле, в воде и в воздухе. Главные герои сериала — четверка спецназовцев, у каждого из которых свой характер и своя судьба.

Формат: AVI
Видеокодек: XviD
Аудиокодек: MP3
Видео: 1149 Кбит/сек, 576*352-480*352 (1,636), в 25,0000 кадров/сек, MPEG-4 Visual (XviD) (Advanced Simple@L5) (BVOP1/Custom Matrix)
Аудио: 128 Кбит/сек, 48,0 Кгц, 2 канала, MPEG Audio (MP3 ) (Version 1)(Layer 3)(Joint stereo/MS Stereo)
Формат : AVI
Формат/Информация : Audio Video Interleave
Размер файла : 400 Мбайт
Продолжительность : 43 м.
Общий поток : 1284 Кбит/сек
Программа кодирования : VirtualDubMod 1.5.4.1 (build 2178/release)
Библиотека кодирования : VirtualDubMod build 2178/release

Видео
Идентификатор : 0
Формат : MPEG-4 Visual
Профиль формата : Advanced Simple@L5
Параметр BVOP формата : 1
Параметр QPel формата : Нет
Параметр GMC формата : Без точки перехода
Параметр матрицы формата : Выборочная
Идентификатор кодека : XVID
Идентификатор кодека/Подсказка : XviD
Продолжительность : 43 м.
Битрейт : 1149 Кбит/сек
Ширина : 576 пикселей
Высота : 352 пикселя
Соотношение сторон : 1,636
Частота кадров : 25,000 кадров/сек
Цветовое пространство : YUV
Субдискретизация насыщенности : 4:2:0
Битовая глубина : 8 бит
Тип развёртки : Прогрессивная
Метод сжатия : С потерями
Бит/(Пиксели*Кадры) : 0.227
Размер потока : 358 Мбайт (89%)
Библиотека кодирования : XviD 1.2.0.dev47 (UTC 2006-11-01)

Аудио
Идентификатор : 1
Формат : MPEG Audio
Версия формата : Version 1
Профиль формата : Layer 3
Режим : Joint stereo
Расширение режима : MS Stereo
Идентификатор кодека : 55
Идентификатор кодека/Подсказка : MP3
Продолжительность : 43 м.
Вид битрейта : Постоянный
Битрейт : 128 Кбит/сек
Каналы : 2 канала
Частота : 48,0 КГц
Метод сжатия : С потерями
Размер потока : 39,9 Мбайт (10%)
Выравнивание : Соединение по промежуткам
Продолжительность промежутка : 80 мс. (2,00 видеокадра)
Время предзагрузки промежутка : 504 мс.
Библиотека кодирования : LAME3.97
Настройки программы : -m j -V 4 -q 2 -lowpass 17 -b 128
скриншот   скриншот   скриншот   скриншот  
Описание:
Этот фильм посвящается морским спецназовцам ВМФ России. Тем, чья нелегкая служба проходит под грифом «Совершенно секретно». Тем, кто является элитой наших вооруженных сил, современным героям нашей страны, имена которых никогда не попадут в передовицы газет. Место действия сериала не ограничивается территорией России. Бойцы появляются там, где требуется их профессиональные навыки, там, где необходимо защищать интересы России и российских граждан
Формат: AVI
Видеокодек: DivX
Аудиокодек: MP3
Видео: 1205 Кбит/сек, 704*432 (1.630), в 25,0000 кадров/сек, MPEG-4 Visual (DivX5) (Сжатый битовый поток) (BVOP1)
Аудио: 128 Кбит/сек(128 Кбит/сек), 44,1 Кгц, 2 канала, MPEG Audio (MP3 ) (Version 1)(Layer 3)
Формат : AVI
Формат/Информация : Audio Video Interleave
Размер файла : 449 Мбайт
Продолжительность : 46 м.
Общий поток : 1342 Кбит/сек

Видео
Идентификатор : 0
Формат : MPEG-4 Visual
Параметр BVOP формата : 1
Параметр QPel формата : Нет
Параметр GMC формата : Без точки перехода
Параметр матрицы формата : Default (H.263)
Режим смешивания : Сжатый битовый поток
Идентификатор кодека : DX50
Идентификатор кодека/Подсказка : DivX 5
Продолжительность : 46 м.
Битрейт : 1205 Кбит/сек
Ширина : 704 пикселя
Высота : 432 пикселя
Соотношение сторон : 1,630
Частота кадров : 25,000 кадров/сек
Цветовое пространство : YUV
Субдискретизация насыщенности : 4:2:0
Битовая глубина : 8 бит
Тип развёртки : Прогрессивная
Метод сжатия : С потерями
Бит/(Пиксели*Кадры) : 0.158
Размер потока : 403 Мбайт (90%)
Заголовок : Video
Библиотека кодирования : DivX 5.2.1 Alpha (UTC 2004-09-08)

Аудио
Идентификатор : 1
Формат : MPEG Audio
Версия формата : Version 1
Профиль формата : Layer 3
Идентификатор кодека : 55
Идентификатор кодека/Подсказка : MP3
Продолжительность : 46 м.
Вид битрейта : Постоянный
Битрейт : 128 Кбит/сек
Каналы : 2 канала
Частота : 44,1 КГц
Метод сжатия : С потерями
Размер потока : 42,8 Мбайт (10%)
Выравнивание : Разделение по промежуткам
Продолжительность промежутка : 40 мс. (1,00 видеокадр)
Время предзагрузки промежутка : 500 мс.
Заголовок : Audio
скриншот   скриншот   скриншот  
Описание:
В новых сериях элитному подразделению боевых пловцов предстоят не менее захватывающие и сложные дела, чем в предыдущих. Батя, Багира, Бизон и Гном виртуозно разработают и проведут операцию по поимке членов группировки, занимающейся нелегальной переброской в Россию сверхсовременного оружия, разминируют катер, чтобы спасти взятую в заложники семью, обезвредят преступника-контрабандиста, поймают неуловимого морского котика, с помощью которого преступники-водолазы совершают дерзкие ограбления, расследуют серию загадочных убийств на нефтяной платформе, освободят торговое судно от морских пиратов, а также «возьмут» уголовников, угнавших пограничный катер.
Формат: AVI
Видеокодек: XviD
Аудиокодек: MP3
Видео: 1351 Кбит/сек, 704*384 (1,85:1), в 25,0000 кадров/сек, MPEG-4 Visual (XviD) (Advanced Simple@L5) (BVOP1)
Аудио: 128 Кбит/сек, 48,0 Кгц, 2 канала, MPEG Audio (MP3 )(Version 1)(Layer3)(Joint tereo/MS Stereo)
Формат : AVI
Формат/Информация : Audio Video Interleave
Размер файла : 480 Мбайт
Продолжительность : 45 м.
Общий поток : 1488 Кбит/сек
Программа кодирования : VirtualDubMod 1.5.10.2 (build 2540/release)
Библиотека кодирования : VirtualDubMod build 2540/release

Видео
Идентификатор : 0
Формат : MPEG-4 Visual
Профиль формата : Advanced Simple@L5
Параметр BVOP формата : 1
Параметр QPel формата : Нет
Параметр GMC формата : Без точки перехода
Параметр матрицы формата : Default (H.263)
Идентификатор кодека : XVID
Идентификатор кодека/Подсказка : XviD
Продолжительность : 45 м.
Битрейт : 1351 Кбит/сек
Ширина : 704 пикселя
Высота : 384 пикселя
Соотношение сторон : 1,85:1
Частота кадров : 25,000 кадров/сек
Цветовое пространство : YUV
Субдискретизация насыщенности : 4:2:0
Битовая глубина : 8 бит
Тип развёртки : Прогрессивная
Метод сжатия : С потерями
Бит/(Пиксели*Кадры) : 0.200
Размер потока : 436 Мбайт (91%)
Библиотека кодирования : XviD 1.2.1 (UTC 2008-12-04)

Аудио
Идентификатор : 1
Формат : MPEG Audio
Версия формата : Version 1
Профиль формата : Layer 3
Режим : Joint stereo
Расширение режима : MS Stereo
Идентификатор кодека : 55
Идентификатор кодека/Подсказка : MP3
Продолжительность : 45 м.
Вид битрейта : Постоянный
Битрейт : 128 Кбит/сек
Каналы : 2 канала
Частота : 48,0 КГц
Метод сжатия : С потерями
Размер потока : 41,3 Мбайт (9%)
Выравнивание : Соединение по промежуткам
Продолжительность промежутка : 40 мс. (1,00 видеокадр)
Время предзагрузки промежутка : 504 мс.
Библиотека кодирования : LAME3.98r
Настройки программы : -m j -V 4 -q 2 -lowpass 17 -b 128
скриншот   скриншот   скриншот   скриншот  
Описание:
В новом сезоне история развивается уже когда бывшие спецназовцы, а ныне боевые пловцы, служат в своем новом отряде. У всех сослуживцев отряда своя трудная судьба, у каждого свой характер, но, тем не менее, есть вещи, которые их всегда и при любых обстоятельствах объединяет — это в первую очередь воинский долг Родине и преданность своему отряду и всеобщему делу. Каждая серия посвящена одному из героев отряда и, несмотря на то, что они част будут встречаться вместе всем отрядом, основная сюжетная линия строится вокруг определенного героя за пределами его работы.
Формат: AVI
Видеокодек: XviD
Аудиокодек: AC3
Видео: 1399 Кбит/сек, 704*400 (16:9), в 25,0000 кадров/сек, MPEG-4 Visual (XviD) (Advanced Simple@L5) (BVOP2)
Аудио: 128 Кбит/сек, 48,0 Кгц, 2 канала, MPEG Audio (MP3 )(Version 1)(Layer3)(Joint tereo/MS Stereo)
Формат : AVI
Формат/Информация : Audio Video Interleave
Размер файла : 504 Мбайт
Продолжительность : 45 м.
Общий поток : 1536 Кбит/сек
Библиотека кодирования : VirtualDub build 30009/release

Видео
Идентификатор : 0
Формат : MPEG-4 Visual
Профиль формата : Advanced Simple@L5
Параметр BVOP формата : 2
Параметр QPel формата : Нет
Параметр GMC формата : Без точки перехода
Параметр матрицы формата : Default (MPEG)
Идентификатор кодека : XVID
Идентификатор кодека/Подсказка : XviD
Продолжительность : 45 м.
Битрейт : 1399 Кбит/сек
Ширина : 704 пикселя
Высота : 400 пикселей
Соотношение сторон : 16:9
Частота кадров : 25,000 кадров/сек
Цветовое пространство : YUV
Субдискретизация насыщенности : 4:2:0
Битовая глубина : 8 бит
Тип развёртки : Прогрессивная
Метод сжатия : С потерями
Бит/(Пиксели*Кадры) : 0.199
Размер потока : 459 Мбайт (91%)
Библиотека кодирования : XviD 58

Аудио
Идентификатор : 1
Формат : MPEG Audio
Версия формата : Version 1
Профиль формата : Layer 3
Режим : Joint stereo
Расширение режима : MS Stereo
Идентификатор кодека : 55
Идентификатор кодека/Подсказка : MP3
Продолжительность : 45 м.
Вид битрейта : Постоянный
Битрейт : 128 Кбит/сек
Каналы : 2 канала
Частота : 48,0 КГц
Метод сжатия : С потерями
Размер потока : 42,0 Мбайт (8%)
Выравнивание : Разделение по промежуткам
Продолжительность промежутка : 40 мс. (1,00 видеокадр)
Время предзагрузки промежутка : 500 мс.
скриншот   скриншот   скриншот  
pb.wtf



Скачать Морские дьяволы через торрент http://pic.kartinco.top/images/2/5yuyj617cu.png Скачать фильм Морские дьяволы через торрент бесплантно в хорошем качестве Описание: Их четверо. Они — бойцы спецназа. Их называют «морскими дьяволами», хотя по праву их можно считать рыцарями трех стихий: они ... 9.6 10 14
Info! Золотая раздача, скачанное не засчитывается.
Торрент: Зарегистрирован [2013-02-24 08:15] · скачан: 124 раз
Статус: √ проверено
Размер: 48.23 GB
Как cкачать? Как скачать Морские дьяволы через торрент | qTorrent



Последний раз редактировалось: dotWizard (2013-02-25 02:51), всего редактировалось 1 раз

28-11-2019 20:33  

Отключить всю рекламу на сайте

24-02-2013 09:29 Морские дьяволы Скачать торрент  

dotWizard
Добавьте Качество к каждому сезону.
pb.wtf



24-02-2013 12:22 Морские дьяволы Скачать торрент  

супер спасибо большоеpb.wtf



24-02-2013 17:41 Морские дьяволы Скачать торрент  

выложите все сезоны улицы разбитых фонарей (МЕНТЫ)pb.wtf



25-02-2013 02:53 Морские дьяволы Скачать торрент  

Как руки дойдут, выложу pb.wtf



28-02-2013 21:59 Морские дьяволы Скачать торрент  

спасибо буду ждатьpb.wtf



24-08-2016 01:09 Морские дьяволы Скачать торрент  

нет никого на раздаче.закачка не идёт!!! pb.wtf



    Дорогой пользователь! Огромная просьба, поблагодарите релизера, оцените раздачу и оставьте свои комментарий, если Вы скачали Морские дьяволы через торрент бесплатно! Внесите свою лепту в развитие PiratBit!
    Комментировать посты могут только пользователи прошедшие не сложную регистрацию
    Показать сообщения:    

    Морские дьяволы через торрент
    Скачать бесплатно Морские дьяволы
    Морские дьяволы скачать торрент
    Морские дьяволы смотреть онлайн
    Cкачать фильм Морские дьяволы бесплатно
    Морские дьяволы скачать торрент в хорошем качестве
    Морские дьяволы смотреть онлайн бесплатно в хорошем качестве


    Вы не можете начинать темы
    Вы не можете отвечать на сообщения
    Вы не можете редактировать свои сообщения
    Вы не можете удалять свои сообщения
    Вы не можете голосовать в опросах
    Вы не можете прикреплять файлы к сообщениям
    Вы можете скачивать файлы