Мега распродажа FORZA HORIZON 4 ULTIMATE+ВСЕ DLC+ОНЛАЙН всего за 499р. 349 руб. (супер цена). Внимание количество ограничено!!!

Лицензия

30

iTunes

мы

iTunes

1

1 сезон

Чернобыль

1 сезон

Ральф против интернета

MVO

Покемон. Детектив Пикачу

8 сезон

Игра престолов

iTunes

1+1

ИГРА 18+

pack

ВАЖНО

!!Акция!!

Alien_RageХит недели

RePack

Resident Evil 21
pack

RePack

Metro:Exodus

!!Акция!!

Alien_Rage

RePack

fifa19

RePack

Assassins Creed: Odyssey

RePack

NEED FOR SPEED™ PAYBACK

3 сезон

9 сезон

Бесстыжие 9 сезон

Все сериалы

все сериалы на PB.wtf

RePack

FAR CRY 5
Ребята, катастрофически не хватает 2730р. для оплаты серверов за МАЙ (всвязи с блокировками трафик упал в 3 раза), 1-2р., выручайте.
  

Баария / Baarìa / Baaria (Джузеппе Торнаторе) [2009 г., драма, комедия, военный, история, BDRip, MVO + Оригинал] pb.wtf

Баария через торрент pb.wtf

Раздают: 1 [ 0 KB/s ]
Размер: 2.06 GB | Добавлен: 6 лет 3 мес. назад | Торрент скачан:69 раз
Скачать  

25-02-2013 16:27 Баария Скачать торрент  

Баария / Baarìa / Baaria
«История любви по-сицилийски»

Год выпуска: 2009
Страна: Италия, Франция
Жанр: драма, комедия, военный, история
Продолжительность: 02:30:49
Перевод: Профессиональный многоголосый + Оригинал

Режиссер: Джузеппе Торнаторе
Продюссер: Тарак Бен Аммар, Марио Котоне
Сценарий: Джузеппе Торнаторе

Премьера в мире: 2 сентября 2009

В ролях: Франческо Шианна, Маргарет Мадэ, Рауль Бова, Джорджо Фалетти, Лео Гуллотта, Николь Гримаудо, Габриэль Лавиа, Анхела Молина, Энрико Ло Версо

Описание: Эпический фильм, рассказывающий о жизни трех поколений одной сицилийской семьи в городке Багерия.

Качество: BDRip ( Исходник BDRemux )
Формат: AVI
Видео кодек: XviD
Аудио кодек: AC3
Видео: 720х304, 23,976 fps, 1554 kbps, 0.296 bit/pixel
Аудио#1: 48 kHz, AC3 2.0, 192.00 kbps / Профессиональный (многоголосый, закадровый) R5
Аудио#2: 48 kHz, AC3 2.0, 192.00 kbps / Оригинал (Итальянский)
&
Общее
Полное имя : E:Фильмы МBaarìa.2009.BDRip.avi
Формат : AVI
Формат/Информация : Audio Video Interleave
Профиль формата : OpenDML
Размер файла : 2,06 Гбайт
Продолжительность : 2 ч. 30 м.
Общий поток : 1957 Кбит/сек
Программа кодирования : VirtualDubModRus 1.5.10.2 (build 2542/release)
Библиотека кодирования : VirtualDubMod build 2542/release

Видео
Идентификатор : 0
Формат : MPEG-4 Visual
Профиль формата : Advanced Simple@L5
Параметр BVOP формата : 3
Параметр QPel формата : Нет
Параметр GMC формата : Без точки перехода
Параметр матрицы формата : Выборочная
Режим смешивания : Сжатый битовый поток
Идентификатор кодека : XVID
Идентификатор кодека/Подсказка : XviD
Продолжительность : 2 ч. 30 м.
Битрейт : 1554 Кбит/сек
Ширина : 720 пикселей
Высота : 304 пикселя
Соотношение сторон : 2,35:1
Частота кадров : 23,976 кадра/сек
Цветовое пространство : YUV
Субдискретизация насыщенности : 4:2:0
Битовая глубина : 8 бит
Тип развёртки : Прогрессивная
Метод сжатия : С потерями
Бит/(Пиксели*Кадры) : 0.296
Размер потока : 1,64 Гбайт (79%)
Библиотека кодирования : XviD 65

Аудио #1
Идентификатор : 1
Формат : AC-3
Формат/Информация : Audio Coding 3
Расширение режима : CM (complete main)
Параметр Endianness формата : Big
Идентификатор кодека : 2000
Продолжительность : 2 ч. 30 м.
Вид битрейта : Постоянный
Битрейт : 192 Кбит/сек
Каналы : 2 канала
Расположение каналов : Front: L R
Частота : 48,0 КГц
Битовая глубина : 16 бит
Метод сжатия : С потерями
Размер потока : 207 Мбайт (10%)
Выравнивание : Разделение по промежуткам
Продолжительность промежутка : 42 мс. (1,00 видеокадр)
Время предзагрузки промежутка : 500 мс.
Заголовок : Профессиональный (многоголосый, закадровый) R5

Аудио #2
Идентификатор : 2
Формат : AC-3
Формат/Информация : Audio Coding 3
Расширение режима : CM (complete main)
Параметр Endianness формата : Big
Идентификатор кодека : 2000
Продолжительность : 2 ч. 30 м.
Вид битрейта : Постоянный
Битрейт : 192 Кбит/сек
Каналы : 2 канала
Расположение каналов : Front: L R
Частота : 48,0 КГц
Битовая глубина : 16 бит
Метод сжатия : С потерями
Размер потока : 207 Мбайт (10%)
Выравнивание : Разделение по промежуткам
Продолжительность промежутка : 42 мс. (1,00 видеокадр)
Время предзагрузки промежутка : 500 мс.
Заголовок : Оригинал (Итальянский)


Баария скачать торрент


pb.wtf



Скачать Баария через торрент http://i51.fastpic.ru/big/2013/0225/71/007f454890fc5b4639dd2ceca3d2ac71.jpg Скачать фильм Баария через торрент бесплантно в хорошем качестве Описание: Эпический фильм, рассказывающий о жизни трех поколений одной сицилийской семьи в городке ... 10 10 2
Info! Золотая раздача, скачанное не засчитывается.
Торрент: Зарегистрирован [2013-02-25 16:27] · скачан: 69 раз
Статус: √ проверено
Размер: 2.06 GB
Как cкачать? Как скачать Баария через торрент | qTorrent

% Раздел Тема Автор DL S | L
Фильмы [HD 720p, 1080p] (Хороший звук DUB, MVO) [ 5.67 GB ] Баария / Baarìa [2009 BDRip 720p by msltel] MVO msltel Скачать
1 | 0
Фильмы [HD 720p, 1080p] (Хороший звук DUB, MVO) [ 14.87 GB ] Баария / Baarìa [2009 BDRip 1080p by msltel] MVO msltel Скачать
1 | 0


>> Регистрируемся здесь <<






Отзывы и комментарии о схеме читаем и пишем здесь: ---> Отзывы и комментарии о схеме

Новые благодарочки в телеграм довольных пользователей:
скриншот   скриншот   скриншот   скриншот   скриншот

25-02-2013 17:33 Баария Скачать торрент  

в эпизоде беллучиpb.wtf



22-10-2018 07:17 Баария Скачать торрент  

Этот гениальный фильм лучше всех охарактеризовал сам великий живой классик Торнаторе, сказав, что *Баария* - фильм его жизни. Потрясающей красоты и пронзительности признание в любви и уважении к своему городу и его жителям. Оценивать составляющие фильма нет смысла, все они безукоризненны. Если вы еще не видели картину, смотрите обязательно, потому что это провал в кинообразовании. Хороший перевод. Качество рипа хорошее. Спасибо за раздачу.pb.wtf



    Дорогой пользователь! Огромная просьба, поблагодарите релизера, оцените раздачу и оставьте свои комментарий, если Вы скачали Баария через торрент бесплатно! Внесите свою лепту в развитие PiratBit!
    Комментировать посты могут только пользователи прошедшие не сложную регистрацию
    Показать сообщения:    

    Баария через торрент
    Скачать бесплатно Баария
    Баария скачать торрент
    Баария смотреть онлайн
    Cкачать фильм Баария бесплатно
    Баария скачать торрент в хорошем качестве
    Баария смотреть онлайн бесплатно в хорошем качестве


    Вы не можете начинать темы
    Вы не можете отвечать на сообщения
    Вы не можете редактировать свои сообщения
    Вы не можете удалять свои сообщения
    Вы не можете голосовать в опросах
    Вы не можете прикреплять файлы к сообщениям
    Вы можете скачивать файлы