Ссылка на приватное зеркало нашего сайта всего за 1$. Внимание количество ограничено!!!

2 сезон

iTunes

1 сезон

1

iTunes

iTunes

iTunes

1 сезон

RePack

30

ИГРА 18+

pack

ВАЖНО

!!Акция!!

Alien_RageХит недели

RePack

MK11
pack

Забери бонус

RePack

jed

!!Акция!!

Alien_Rage

RePack

fifa19

RePack

Assassins Creed: Odyssey

RePack

NEED FOR SPEED™ PAYBACK

4 сезон

9 сезон

Бесстыжие 9 сезон

Все сериалы

все сериалы на PB.wtf

RePack

FAR CRY 5
  

Агент Хамилтон: Похищенная / Hamilton 2: Men inte om det gäller din dotter (Тобиас Фальк) [2012 г., боевик, триллер, драма, BDRip 720p, MVO] pb.wtf

Агент Хамилтон: Похищенная через торрент pb.wtf

Размер: 3.54 GB | Добавлен: 7 лет 8 мес. назад | Торрент скачан:55 раз
Скачать  

25-02-2013 19:09 Агент Хамилтон: Похищенная Скачать торрент  

Агент Хамилтон: Похищенная / Hamilton 2: Men inte om det gäller din dotter

Год выпуска: 2012
Страна: Швеция
Жанр: боевик, триллер, драма
Продолжительность: 01:29:47
Перевод: Профессиональный многоголосый

Режиссер: Тобиас Фальк
Продюссер: Жан Марнелл, Джессика Эрикстам, Маттиас Йоханссон
Сценарий: Стефан Тунберг, Ян Гиллоу

Мировой рейтинг IMDB 5.30 (1 017)


В ролях: Микаэл Персбрандт, Стивен Вэддингтон, Джон Лайт, Фрида Халлгрен, Дэвид Ринтул, Кэл Макэнинк, Питер Эггерс, Милинд Соман, Найджел Уитми, Саба Мубарак

Описание: Хамилтон — специальный агент, призванный решать самые невыполнимые задачи. Он всегда защищал интересы своей страны. Но когда его крестная дочь оказывается похищенной представителями ближневосточного нефтяного магната и правительство не предпринимает никаких шагов к ее освобождению, Хамилтон решает вернуть ее домой своими силами. Вместе с друзьями ему предстоит вступить в схватку с вооруженной до зубов армией и взять штурмом крепость в пустыне. Оружие уже заряжено, а Агент Хамилтон никогда не терпит поражений.

Качество: BDRip 720p
Формат: MKV
Видео кодек: H.264
Аудио кодек: AC3
Видео: 1280 x 544 (2.353) at 24.000 fps AVC at 5450 Кбит/сек
Аудио: AC-3 at 192 Кбит/сек 2 канала, 48,0 КГц
Общее
Уникальный идентификатор : 202086445592950528218898603346529443111 (0x98086F067420EAFE954126EC7B055D27)
Полное имя : D:ФильмыHamilton2.Unless.It's.About.Your.Daughter. 2012.BDRip.720p.mkv
Формат : Matroska
Версия формата : Version 4 / Version 2
Размер файла : 3,54 Гбайт
Продолжительность : 1 ч. 29 м.
Общий поток : 5638 Кбит/сек
Название фильма : Hamilton 2: Unless Its About Your Daughter (2012) | Encoded by ed_rez
Дата кодирования : UTC 2013-02-24 20:05:09
Программа кодирования : mkvmerge v6.0.0 ('Coming Up For Air') built on Jan 20 2013 09:52:00
Библиотека кодирования : libebml v1.3.0 + libmatroska v1.4.0

Видео
Идентификатор : 1
Формат : AVC
Формат/Информация : Advanced Video Codec
Профиль формата : High@L4.1
Параметр CABAC формата : Да
Параметр ReFrames формата : 12 кадров
Идентификатор кодека : V_MPEG4/ISO/AVC
Продолжительность : 1 ч. 29 м.
Битрейт : 5450 Кбит/сек
Ширина : 1280 пикселей
Высота : 544 пикселя
Соотношение сторон : 2,35:1
Режим частоты кадров : Постоянный
Частота кадров : 24,000 кадра/сек
Цветовое пространство : YUV
Субдискретизация насыщенности : 4:2:0
Битовая глубина : 8 бит
Тип развёртки : Прогрессивная
Бит/(Пиксели*Кадры) : 0.326
Размер потока : 3,35 Гбайт (95%)
Заголовок : Hamilton 2: Unless Its About Your Daughter (2012)
Библиотека кодирования : x264 core 129 r2230 1cffe9f
Настройки программы : cabac=1 / ref=12 / deblock=1:-3:-3 / analyse=0x3:0x113 / me=umh / subme=10 / psy=1 / psy_rd=1.00:0.15 / mixed_ref=1 / me_range=32 / chroma_me=1 / trellis=2 / 8x8dct=1 / cqm=0 / deadzone=21,11 / fast_pskip=1 / chroma_qp_offset=-3 / threads=8 / lookahead_threads=1 / sliced_threads=0 / nr=0 / decimate=0 / interlaced=0 / bluray_compat=0 / constrained_intra=0 / bframes=12 / b_pyramid=2 / b_adapt=2 / b_bias=0 / direct=3 / weightb=1 / open_gop=0 / weightp=2 / keyint=250 / keyint_min=24 / scenecut=40 / intra_refresh=0 / rc_lookahead=40 / rc=2pass / mbtree=0 / bitrate=5450 / ratetol=1.0 / qcomp=0.70 / qpmin=0 / qpmax=69 / qpstep=4 / cplxblur=20.0 / qblur=0.5 / vbv_maxrate=50000 / vbv_bufsize=62500 / nal_hrd=none / ip_ratio=1.40 / pb_ratio=1.30 / aq=1:1.00
Язык : Swedish
Default : Да
Forced : Нет
Основные цвета : BT.709
Характеристики трансфера : BT.709
Коэффициенты матрицы : BT.709

Аудио
Идентификатор : 2
Формат : AC-3
Формат/Информация : Audio Coding 3
Расширение режима : CM (complete main)
Параметр Endianness формата : Big
Идентификатор кодека : A_AC3
Продолжительность : 1 ч. 29 м.
Вид битрейта : Постоянный
Битрейт : 192 Кбит/сек
Каналы : 2 канала
Расположение каналов : Front: L R
Частота : 48,0 КГц
Битовая глубина : 16 бит
Метод сжатия : С потерями
Размер потока : 123 Мбайт (3%)
Default : Да
Forced : Нет


Агент Хамилтон: Ради собственной дочери скачать торрент


pb.wtf



Скачать Агент Хамилтон: Похищенная через торрент http://pic.kartinco.top/images/2/r9uqlfzi3l.png Скачать фильм Агент Хамилтон: Похищенная через торрент бесплантно в хорошем качестве Описание: Хамилтон — специальный агент, призванный решать самые невыполнимые задачи. Он всегда защищал интересы своей страны. Но когда его ... 9 10 1
Info! Золотая раздача, скачанное не засчитывается.
Торрент: Зарегистрирован [2013-02-25 19:09] · скачан: 55 раз
Статус: √ проверено
Размер: 3.54 GB
Как cкачать? Как скачать Агент Хамилтон: Похищенная через торрент | qTorrent

% Раздел Тема Автор DL S | L
Фильмы 2012 [ 1.37 GB ] Агент Хамилтон: Похищенная / Hamilton 2: Men inte om det gäller din dotter [2012 HDRip MVO] [НТВ yuivan Скачать
1 | 0

28-11-2019 20:33  

Отключить всю рекламу на сайте

25-02-2013 19:17 Агент Хамилтон: Похищенная Скачать торрент  

  • Хамилтон 2: только если это не касается вашей дочери
  • Агент Хамилтон: Ради собственной дочери
от куда вы эти названия берете?




Агент Хамилтон: Похищенная - так называется фильм




Проявите фантазию, зачем слизывать с источника слово в словоpb.wtf



25-02-2013 20:49 Агент Хамилтон: Похищенная Скачать торрент  

о нет.. у этого УГ есть вторая часть? пс. качать не буду, но за раздачу спасибо-мало ли кому пригодится? :truce:pb.wtf



25-02-2013 22:05 Агент Хамилтон: Похищенная Скачать торрент  

да ладно, первая вполне ничего была)pb.wtf



25-02-2013 23:46 Агент Хамилтон: Похищенная Скачать торрент  

yuivan писал(а):

  • Хамилтон 2: только если это не касается вашей дочери
  • Агент Хамилтон: Ради собственной дочери
от куда вы эти названия берете?




Агент Хамилтон: Похищенная - так называется фильм




Проявите фантазию, зачем слизывать с источника слово в слово

Перевод с английского. Похищенная это упращёный вариантpb.wtf



26-02-2013 16:07 Агент Хамилтон: Похищенная Скачать торрент  

Хватит флудить в постах.pb.wtf



    Дорогой пользователь! Огромная просьба, поблагодарите релизера, оцените раздачу и оставьте свои комментарий, если Вы скачали Агент Хамилтон: Похищенная через торрент бесплатно! Внесите свою лепту в развитие PiratBit!
    Комментировать посты могут только пользователи прошедшие не сложную регистрацию
    Показать сообщения:    

    Агент Хамилтон: Похищенная через торрент
    Скачать бесплатно Агент Хамилтон: Похищенная
    Агент Хамилтон: Похищенная скачать торрент
    Агент Хамилтон: Похищенная смотреть онлайн
    Cкачать фильм Агент Хамилтон: Похищенная бесплатно
    Агент Хамилтон: Похищенная скачать торрент в хорошем качестве
    Агент Хамилтон: Похищенная смотреть онлайн бесплатно в хорошем качестве


    Вы не можете начинать темы
    Вы не можете отвечать на сообщения
    Вы не можете редактировать свои сообщения
    Вы не можете удалять свои сообщения
    Вы не можете голосовать в опросах
    Вы не можете прикреплять файлы к сообщениям
    Вы можете скачивать файлы