Ссылка на приватное зеркало нашего сайта всего за 1$. Внимание количество ограничено!!!

2 сезон

iTunes

1 сезон

1

iTunes

iTunes

iTunes

1 сезон

RePack

30

ИГРА 18+

pack

ВАЖНО

!!Акция!!

Alien_RageХит недели

RePack

MK11
pack

Забери бонус

RePack

jed

!!Акция!!

Alien_Rage

RePack

fifa19

RePack

Assassins Creed: Odyssey

RePack

NEED FOR SPEED™ PAYBACK

4 сезон

9 сезон

Бесстыжие 9 сезон

Все сериалы

все сериалы на PB.wtf

RePack

FAR CRY 5
  

Ральф / Wreck-It Ralph (Рич Мур) [2012 г., мультфильм, комедия, приключения, семейный, HDRip, DUB, лицензия] pb.wtf

Ральф через торрент pb.wtf

Раздают: 1 [ 0 KB/s ]
Размер: 1.46 GB | Добавлен: 7 лет 8 мес. назад | Торрент скачан:3967 раз
Скачать  

26-02-2013 03:52 Ральф Скачать торрент  

Ральф / Wreck-It Ralph

Год выпуска: 2012
Страна: США
Жанр: мультфильм, комедия, приключения, семейный
Продолжительность: 01:41:13
Перевод: Дубляж, Лицензия
Тип релиза: Лицензия

Режиссер: Рич Мур
Продюссер: Кларк Спенсер, Моника Лаго-Кэйтис, Джон Лассетер
Сценарий: Фил Джонстон, Дженнифер Ли, Рич Мур

Мировой рейтинг IMDB 7.90 (57 754)


В ролях: Джон Си Райли, Джек МакБрайер, Сара Силверман, Джейн Линч, Алан Тьюдик, Минди Калинг, Джо Ло Трульо, Эд О’Нил, Деннис Хейсбёрт, Эди МакКлёрг, Станислав Дужников, Александр Гудков, Наталия Медведева, Регина Щукина, Валентин Морозов

Описание: Ральф — второстепенный персонаж восьмибитной компьютерной игры, и ему надоело находиться в тени главного героя, мастера на все руки Феликса, который всегда появляется, чтобы «исправить» ситуацию! После тридцати лет добросовестной работы в роли злодея, в течение которых все похвалы выпадали на долю Феликса, Ральф больше не хочет быть плохим.Он решает отправиться в путешествие по аркадным играм разных жанров, чтобы доказать всем, что и он тоже может быть героем. На своем пути Ральф встречает героев разных игр — хладнокровную сержанта Калхун из игры Hero’s Duty, оберегающую планету от нашествия инопланетных захватчиков, и сладкую на вид, но острую на язычок Сластену фон Дю, чье существование в гоночном симуляторе Sugar Rush внезапно оказывается под угрозой. Наконец-то Ральфу выпадает шанс показать, что он умеет не только разрушать!

Качество: HDRip [720p.BluRay.DD5.1.x264-HiDt]
Формат: AVI
Видео кодек: XviD
Аудио кодек: AC3
Видео: 720x304 (2.37:1), 23.976 fps, XviD build 50 ~1666 kbps avg, 0.32 bit/pixel
Аудио#1: 48 kHz, AC3 Dolby Digital, 3/2 (L,C,R,l,r) + LFE ch, ~384 kbps
Релиз от:
General
Complete name : H:Ralf.2012.D.HDRip.IRONCLUB.avi
Format : AVI
Format/Info : Audio Video Interleave
File size : 1.46 GiB
Duration : 1h 41mn
Overall bit rate : 2 060 Kbps
Movie name : Ralf.2012.D.HDRip.IRONCLUB
Director :
Genre : Animation, Comedy, Family
Writing application : VirtualDubMod 1.5.10.2 (build 2540/release)
Original source form/Name : Cartoon
Copyright :

Video
ID : 0
Format : MPEG-4 Visual
Format profile : Advanced Simple@L5
Format settings, BVOP : 1
Format settings, QPel : No
Format settings, GMC : No warppoints
Format settings, Matrix : Custom
Codec ID : XVID
Codec ID/Hint : XviD
Duration : 1h 41mn
Bit rate : 1 667 Kbps
Width : 720 pixels
Height : 304 pixels
Display aspect ratio : 2.35:1
Frame rate : 23.976 fps
Color space : YUV
Chroma subsampling : 4:2:0
Bit depth : 8 bits
Scan type : Progressive
Compression mode : Lossy
Bits/(Pixel*Frame) : 0.318
Stream size : 1.18 GiB (81%)
Writing library : XviD 1.2.1 (UTC 2008-12-04)

Audio
ID : 1
Format : AC-3
Format/Info : Audio Coding 3
Mode extension : CM (complete main)
Format settings, Endianness : Big
Codec ID : 2000
Duration : 1h 41mn
Bit rate mode : Constant
Bit rate : 384 Kbps
Channel(s) : 6 channels
Channel positions : Front: L C R, Side: L R, LFE
Sampling rate : 48.0 KHz
Bit depth : 16 bits
Compression mode : Lossy
Stream size : 278 MiB (19%)
Alignment : Split accross interleaves
Interleave, duration : 42 ms (1.00 video frame)
Interleave, preload duration : 500 ms


Ральф скачать торрент


pb.wtf



Скачать Ральф через торрент http://pic.kartinco.top/images/2/wzuztg2ego.png Скачать фильм Ральф через торрент бесплантно в хорошем качестве Описание: Ральф — второстепенный персонаж восьмибитной компьютерной игры, и ему надоело находиться в тени главного героя, мастера на все ... 9.5 10 45
Info! Золотая раздача, скачанное не засчитывается.
Торрент: Зарегистрирован [2013-02-26 03:52] · скачан: 3 967 раз
Статус: √ проверено
Размер: 1.46 GB
Как cкачать? Как скачать Ральф через торрент | qTorrent

% Раздел Тема Автор DL S | L
Ultra HD (UHD: 2K, 4K, 8K) [ 43.94 GB ] Ральф / Wreck-It Ralph [2012 Мультфильм UHD BDRemux 2160p] 2xAVO+DUB [] bober100 Скачать
1 | 0
Ultra HD (UHD: 2K, 4K, 8K) [ 45.08 GB ] Ральф / Wreck-It Ralph [2012 мультфильм UHD BDRemux 2160p] DUB + AVO [Ю. Сербин] sheker187 Скачать
1 | 0
Зарубежные Мультфильмы (BDRip 1080p, 720p, Blu-ray, BD-Remux) [ 5.26 GB ] Ральф / Wreck-It Ralph [2012 мультфильм BDRip 1080p HEVC ] Мичман37 Скачать
3 | 0
Иностранные мультфильмы [ 3.46 GB ] Ральф / Wreck-It Ralph [2012 BDRip-AVC] [Локализованный видеоряд] + 2x[AVO] + Dub killermax2013 Скачать
1 | 0
Мультфильмы (48-60 fps) [ 3.76 GB ] Ральф / Wreck-It Ralph [2012 мультфильм BDRip 720p] [60 FPS] killermax2013 Скачать
2 | 0
Иностранные мультфильмы [ 2.05 GB ] Ральф / Wreck-It Ralph [2012 мультфильм HDRip] [AVO] + [AVO] killermax2013 Скачать
1 | 0
3D Мультфильмы [ 3.57 GB ] Ральф в 3D / Wreck-It Ralph in 3D [2012 мультфильм BDRip-AVC DUB + Оригинал] Anaglyph red'cyan slaventi-69 Скачать
1 | 0

28-11-2019 20:33  

Отключить всю рекламу на сайте

26-02-2013 08:29 Ральф Скачать торрент  

прикольный мульт!!!!pb.wtf



26-02-2013 09:16 Ральф Скачать торрент  

наверное стоит указать что это лицуха с iTunes Russiapb.wtf



26-02-2013 12:00 Ральф Скачать торрент  

Мне кажется или не я один качаю потому что там будет bug hunt скриллексаpb.wtf



26-02-2013 20:28 Ральф Скачать торрент  

Мультик - СУПЕР!!!!!! : :tease:pb.wtf





Последний раз редактировалось: bodya1980 (2013-03-01 06:18), всего редактировалось 1 раз

01-03-2013 06:01 Ральф Скачать торрент  

Userman4ik писал(а):

наверное стоит указать что это лицуха с iTunes Russia

А в чем разница то?pb.wtf



31-10-2013 20:34 Ральф Скачать торрент  

Четкий мультфильм, интирессный и с сюжетом даже, скачаю посматрю еще расс с девушкой, ей точно понравится.pb.wtf



    Дорогой пользователь! Огромная просьба, поблагодарите релизера, оцените раздачу и оставьте свои комментарий, если Вы скачали Ральф через торрент бесплатно! Внесите свою лепту в развитие PiratBit!
    Комментировать посты могут только пользователи прошедшие не сложную регистрацию
    Показать сообщения:    

    Ральф через торрент
    Скачать бесплатно Ральф
    Ральф скачать торрент
    Ральф смотреть онлайн
    Cкачать фильм Ральф бесплатно
    Ральф скачать торрент в хорошем качестве
    Ральф смотреть онлайн бесплатно в хорошем качестве


    Вы не можете начинать темы
    Вы не можете отвечать на сообщения
    Вы не можете редактировать свои сообщения
    Вы не можете удалять свои сообщения
    Вы не можете голосовать в опросах
    Вы не можете прикреплять файлы к сообщениям
    Вы можете скачивать файлы