1 сезон

1 сезон

iTunes

1

КиноПоиск HD

Кинопоиск HD

iTunes

13

1 сезон

RePack

30

Ultimate

ВАЖНО

ИГРА 18+

pack

RePack

MK11
pack

Легкие деньги

RePack

jed

RePack

fifa19

RePack

RDR2

RePack

NEED FOR SPEED™ PAYBACK

4 сезон

9 сезон

Бесстыжие 9 сезон

Все сериалы

все сериалы на PB.wtf

RePack

FAR CRY 5
  
Magnet ссылка

Хокинг / Hawking (Филип Мартин) [2004 г., Биография, драма, DVDRip, VO] pb.wtf

Хокинг через торрент pb.wtf

Размер: 970 MB | Добавлен: 8 лет 1 мес. назад | Торрент скачан:32 раза
Скачать  

26-02-2013 14:12 Хокинг Скачать торрент  


Хокинг / Hawking

Год выпуска: 2004
Страна:
Жанр: Биография, драма
Продолжительность: 01:28:40
Перевод: Любительский одноголосый [Игорь Степанов]
Субтитры: Русские, внешние
Режиссер: Филип Мартин
Продюссер: Джессика Поуп, Саймон Бёрд, Джон Линч
Сценарий: Питер Моффат
Премьера в мире: 13 апреля 2004
В ролях: Бенедикт Камбербэтч, Майкл Брэндон, Том Ходжкинс, Лиза Диллон, Фиби Николлс, Адам Годли,Питер Фёрт, Том Уорд
Описание: Биографический фильм об университетских годах выдающегося британского ученого-астрофизика Стивена Хокинга.
Качество: DVDRip
Формат: AVI
Видео кодек: XviD
Аудио кодек: AC3
Видео: 576x320 (1.80:1), 25 fps, XviD build 50 ~1097 kbps avg, 0.24 bit/pixel
Аудио(Rus): 48 kHz, AC3 Dolby Digital, 2/0 (L,R) ch, ~192 kbps
Аудио(Eng): 48 kHz, AC3 Dolby Digital, 2/0 (L,R) ch, ~224 kbps



Общее
Полное имя : Хокинг2004 Хокинг.avi
Формат : AVI
Формат/Информация : Audio Video Interleave
Размер файла : 970 Мбайт
Продолжительность : 1 ч. 28 м.
Общий поток : 1529 Кбит/сек
Программа кодирования : VirtualDubMod 1.5.4.1 (build 2178/release)
Библиотека кодирования : VirtualDubMod build 2178/release

Видео
Идентификатор : 0
Формат : MPEG-4 Visual
Профиль формата : Advanced Simple@L5
Параметр BVOP формата : 1
Параметр QPel формата : Нет
Параметр GMC формата : Без точки перехода
Параметр матрицы формата : Выборочная
Идентификатор кодека : XVID
Идентификатор кодека/Подсказка : XviD
Продолжительность : 1 ч. 28 м.
Битрейт : 1098 Кбит/сек
Ширина : 576 пикселей
Высота : 320 пикселей
Соотношение сторон : 16:9
Частота кадров : 25,000 кадров/сек
Цветовое пространство : YUV
Субдискретизация насыщенности : 4:2:0
Битовая глубина : 8 бит
Тип развёртки : Прогрессивная
Метод сжатия : С потерями
Бит/(Пиксели*Кадры) : 0.238
Размер потока : 697 Мбайт (72%)
Библиотека кодирования : XviD 1.2.1 (UTC 2008-12-04)

Аудио #1
Идентификатор : 1
Формат : AC-3
Формат/Информация : Audio Coding 3
Расширение режима : CM (complete main)
Параметр Endianness формата : Big
Идентификатор кодека : 2000
Продолжительность : 1 ч. 28 м.
Вид битрейта : Постоянный
Битрейт : 192 Кбит/сек
Каналы : 2 канала
Расположение каналов : Front: L R
Частота : 48,0 КГц
Битовая глубина : 16 бит
Метод сжатия : С потерями
Размер потока : 122 Мбайт (13%)
Выравнивание : Разделение по промежуткам
Продолжительность промежутка : 40 мс. (1,00 видеокадр)
Время предзагрузки промежутка : 500 мс.

Аудио #2
Идентификатор : 2
Формат : AC-3
Формат/Информация : Audio Coding 3
Расширение режима : CM (complete main)
Параметр Endianness формата : Big
Идентификатор кодека : 2000
Продолжительность : 1 ч. 28 м.
Вид битрейта : Постоянный
Битрейт : 224 Кбит/сек
Каналы : 2 канала
Расположение каналов : Front: L R
Частота : 48,0 КГц
Битовая глубина : 16 бит
Метод сжатия : С потерями
Размер потока : 142 Мбайт (15%)
Выравнивание : Разделение по промежуткам
Продолжительность промежутка : 40 мс. (1,00 видеокадр)
Время предзагрузки промежутка : 500 мс.

Скриншотыскриншот  скриншот  скриншот  скриншот  скриншот  
pb.wtf



Скачать Хокинг через торрент https://pic.kartinco.top/images/2/pqd8weuv4f.jpg Скачать фильм Хокинг через торрент бесплантно в хорошем качестве Описание: Биографический фильм об университетских годах выдающегося британского ученого-астрофизика Стивена ... 5 10 1
Info! Золотая раздача, скачанное не засчитывается.
Торрент: Зарегистрирован [2013-02-26 14:12] · скачан: 32 раз
Статус: √ проверено
Размер: 970 MB
Как cкачать? Как скачать Хокинг через торрент | UTorrent

% Раздел Тема Автор DL S | L
Discovery [ 1.95 GB ] Во вселенную со Стивеном Хокингом / Into The Universe With Stephen Hawking. [2010 Документальный научно-познавательный HDRip] [Discovery] Pir@tya2010 Скачать
1 | 0

28-11-2019 20:33  

Отключить всю рекламу на сайте

    Дорогой пользователь! Огромная просьба, поблагодарите релизера, оцените раздачу и оставьте свои комментарий, если Вы скачали Хокинг через торрент бесплатно! Внесите свою лепту в развитие PiratBit!
    Комментировать посты могут только пользователи прошедшие не сложную регистрацию
    Показать сообщения:    

    Хокинг через торрент
    Скачать бесплатно Хокинг
    Хокинг скачать торрент
    Хокинг смотреть онлайн
    Cкачать фильм Хокинг бесплатно
    Хокинг скачать торрент в хорошем качестве
    Хокинг смотреть онлайн бесплатно в хорошем качестве


    Вы не можете начинать темы
    Вы не можете отвечать на сообщения
    Вы не можете редактировать свои сообщения
    Вы не можете удалять свои сообщения
    Вы не можете голосовать в опросах
    Вы не можете прикреплять файлы к сообщениям
    Вы можете скачивать файлы