Ссылка на приватное зеркало нашего сайта всего за 1$. Внимание количество ограничено!!!

2 сезон

iTunes

1 сезон

1

iTunes

iTunes

iTunes

1 сезон

RePack

30

ИГРА 18+

pack

ВАЖНО

!!Акция!!

Alien_RageХит недели

RePack

MK11
pack

Забери бонус

RePack

jed

!!Акция!!

Alien_Rage

RePack

fifa19

RePack

Assassins Creed: Odyssey

RePack

NEED FOR SPEED™ PAYBACK

4 сезон

9 сезон

Бесстыжие 9 сезон

Все сериалы

все сериалы на PB.wtf

RePack

FAR CRY 5
  

Собачья работа / Серии: 1-8 из 8 (Алексей Рудаков) [2012, криминал, детектив, DVD9] R5 pb.wtf

Собачья работа через торрент pb.wtf

Размер: 7.4 GB | Добавлен: 7 лет 7 мес. назад | Торрент скачан:53 раза
Скачать  

26-02-2013 17:15 Собачья работа Скачать торрент  


Собачья работа
Страна: Россия
Студия: Art Pictures Media
Жанр: криминал, детектив
Год выпуска: 2012
Российская премьера: 8 октября 2012
Дата выхода DVD: 14 февраля 2013
Продолжительность: 360 мин.
Перевод: Оригинал [Лицензия]
Cубтитры: нет
Оригинальная аудиодорожка: русский
Режиссер: Алексей Рудаков
В ролях: Владимир Епифанцев, Ирина Лачина, Светлана Немоляева, Михаил Полицеймако, Александр Стриженов, Елена Дробышева, Анатолий Журавлев, Галина Звягинцева, Игорь Пазыч, Наталия Житкова
Описание: Капитан полиции кинолог Илья Смагин во время спецоперации теряет напарника и друга — пса Рагдая, одного из лучших «поисковиков» в кинологической службе.
Смагину и его коллегам предстоит найти и обезвредить банду наркоторговцев и выяснить, где они прячут товар.
Смагин не верит в то, что ему удастся найти собаку, равную Рагдаю. В это время ему передают письмо от коллеги, убитого во время той же операции. Предчувствуя свою гибель, коллега просит Смагина позаботиться о его собаке Луше. Луша тоскует по умершему хозяину и отказывается от пищи. Смагин берет Лушу к себе.

Бонусы: нет

Релиз группы:
Качество: DVD9 R5
Формат: DVD-Video
Видео кодек: MPEG2
Аудио кодек: AC3
Видео: PAL 16:9 (720x576(4.378)) MPEG Video, 25,000 кадр/сек, 8100 Кбит/сек
Аудио: Russian (Dolby AC3, 2 ch) 96 Кбит/сек, 48,0 КГц



Title: Sobachya.rabota.2012.DVD9
Size: 7.40 Gb ( 7 754 590,00 KBytes ) - DVD-9
Enabled regions: 1, 2, 3, 4, 5, 6, 7, 8

VTS_01 :
Play Length: 00:44:01+00:44:51+00:44:41+00:44:31+00:43:41+00:44:31+00:44:36+00:44:01
Video: PAL 16:9 (720x576) VBR, Auto Letterboxed
Audio:
English (Dolby AC3, 2 ch)

* Menus Information *

VIDEO_TS Menu
Video:
PAL 16:9 (720x576) VBR
Auto Letterboxed
Audio:
Not specified (Dolby AC3, 2 ch)
English Language Unit :
Title Menu

VTS_01 Menu
Video:
PAL 16:9 (720x576) VBR
Auto Letterboxed
Audio:
Not specified (Dolby AC3, 2 ch)
English Language Unit :
Root Menu
Общее
Полное имя : J:Новинки 2013Sobachya.rabota.2012.DVD9VIDEO_TSVTS_01_2.VOB
Формат : MPEG-PS
Размер файла : 1024 Мбайт
Продолжительность : 3 м. 5 с.
Режим общего битрейта : Переменный
Общий поток : 46,4 Мбит/сек

Видео
Идентификатор : 224 (0xE0)
Формат : MPEG Video
Версия формата : Version 2
Профиль формата : Main@Main
Параметр BVOP формата : Да
Параметр матрицы формата : Выборочная
Параметр GOP формата : Variable
Продолжительность : 3 м. 4 с.
Вид битрейта : Переменный
Битрейт : 45,4 Мбит/сек
Максимальный битрейт : 8100 Кбит/сек
Ширина : 720 пикселей
Высота : 576 пикселей
Соотношение сторон : 16:9
Частота кадров : 25,000 кадров/сек
Стандарт вещания : PAL
Цветовое пространство : YUV
Субдискретизация насыщенности : 4:2:0
Битовая глубина : 8 бит
Тип развёртки : Прогрессивная
Метод сжатия : С потерями
Бит/(Пиксели*Кадры) : 4.378
Размер потока : 999 Мбайт (98%)

Аудио
Идентификатор : 189 (0xBD)-128 (0x80)
Формат : AC-3
Формат/Информация : Audio Coding 3
Расширение режима : CM (complete main)
Параметр Endianness формата : Big
Режим смешивания : DVD-Video
Продолжительность : 3 м. 5 с.
Вид битрейта : Постоянный
Битрейт : 96,0 Кбит/сек
Каналы : 2 канала
Расположение каналов : Front: L R
Частота : 48,0 КГц
Битовая глубина : 16 бит
Метод сжатия : С потерями
Задержка видео : -592 мс.
Размер потока : 2,12 Мбайт (0%)




pb.wtf



Скачать Собачья работа через торрент http://i51.fastpic.ru/big/2013/0226/91/d3fd88432992db53dfaca01144860b91.jpg Скачать фильм Собачья работа через торрент бесплантно в хорошем качестве Описание: Капитан полиции кинолог Илья Смагин во время спецоперации теряет напарника и друга — пса Рагдая, одного из лучших «поисковиков» в ... 10 10 1
Info! Золотая раздача, скачанное не засчитывается.
Торрент: Зарегистрирован [2013-02-26 17:15] · скачан: 53 раз
Статус: √ проверено
Размер: 7.4 GB
Как cкачать? Как скачать Собачья работа через торрент | qTorrent

28-11-2019 20:33  

Отключить всю рекламу на сайте

    Дорогой пользователь! Огромная просьба, поблагодарите релизера, оцените раздачу и оставьте свои комментарий, если Вы скачали Собачья работа через торрент бесплатно! Внесите свою лепту в развитие PiratBit!
    Комментировать посты могут только пользователи прошедшие не сложную регистрацию
    Показать сообщения:    

    Собачья работа через торрент
    Скачать бесплатно Собачья работа
    Собачья работа скачать торрент
    Собачья работа смотреть онлайн
    Cкачать фильм Собачья работа бесплатно
    Собачья работа скачать торрент в хорошем качестве
    Собачья работа смотреть онлайн бесплатно в хорошем качестве


    Вы не можете начинать темы
    Вы не можете отвечать на сообщения
    Вы не можете редактировать свои сообщения
    Вы не можете удалять свои сообщения
    Вы не можете голосовать в опросах
    Вы не можете прикреплять файлы к сообщениям
    Вы можете скачивать файлы