Ссылка на приватное зеркало нашего сайта всего за 1$. Внимание количество ограничено!!!

2 сезон

iTunes

1 сезон

1

2 сезон

2 сезон

iTunes

1 сезон

RePack

30

Новинка

ВАЖНО

ИГРА 18+

pack

RePack

MK11
pack

Забери бонус

RePack

jed

!!Акция!!

Alien_Rage

RePack

fifa19

RePack

Assassins Creed: Odyssey

RePack

NEED FOR SPEED™ PAYBACK

4 сезон

9 сезон

Бесстыжие 9 сезон

Все сериалы

все сериалы на PB.wtf

RePack

FAR CRY 5
  

Ублюдки (Дворняги) / Mongrels / Сезон: 2 / Серии 1-9 из 9 / (Адам Миллер) [2011 г., комедия, TVRip] DVO KвК pb.wtf

Ублюдки через торрент pb.wtf

Размер: 1.7 GB | Добавлен: 7 лет 9 мес. назад | Торрент скачан:38 раз
Скачать  

26-02-2013 19:26 Ублюдки Скачать торрент  



Ублюдки (Дворняги) / Mongrels
2 сезон




Страна:
Год выпуска: 2011
Жанр: комедия
Продолжительность: 9 серий по 00:29:00
Перевод: Профессиональный, двуголосый, закадровый [Кубик в Кубе]
Режиссер: Адам Миллер
Продюссер: Джон Браун, Стивен МакКрам, Марк Фриланд
Сценарий: Джон Браун, Дэниэл Пик, Дэниэл Тетсэлл
В ролях: Руфус Джонс, Кэти Брэнд, Люси Монтгомери, Пол Кэй, Тони Вэй, Рут Брэтт, Феликс Декстер
Описание: Действие сериала вращается вокруг жизни пяти антропоморфных животных. Метросексуала лиса, эгоцентричной афганской борзой, кастрированного кота,
голубя и еще одного лиса матершинника-социопата.

Качество: TVRip
Формат: AVI
Видео кодек: XviD
Аудио кодек: MPEG Audio
Видео: 624x352 (1.77:1), 25 fps, XviD 1.1 beta 2 (build 39) ~764 kbps avg, 0.14 bit/pixel
Аудио: 44.100 kHz, MPEG Layer 3, 2 ch, ~128.00 kbps avg

Скриншотыскриншот  скриншот  скриншот  скриншот  скриншот  
Общее
Полное имя : Mongrels2 seasonmongrels_s02e05.avi
Формат : AVI
Формат/Информация : Audio Video Interleave
Размер файла : 184 Мбайт
Продолжительность : 28 м.
Общий поток : 902 Кбит/сек
Программа кодирования : VirtualDubMod 1.5.10.2 (build 2540/release)
Библиотека кодирования : VirtualDub build 34753/release

Видео
Идентификатор : 0
Формат : MPEG-4 Visual
Профиль формата : Advanced Simple@L5
Параметр BVOP формата : 2
Параметр QPel формата : Нет
Параметр GMC формата : Без точки перехода
Параметр матрицы формата : Default (H.263)
Режим смешивания : Сжатый битовый поток
Идентификатор кодека : XVID
Идентификатор кодека/Подсказка : XviD
Продолжительность : 28 м.
Битрейт : 765 Кбит/сек
Ширина : 624 пикселя
Высота : 352 пикселя
Соотношение сторон : 16:9
Частота кадров : 25,000 кадров/сек
Цветовое пространство : YUV
Субдискретизация насыщенности : 4:2:0
Битовая глубина : 8 бит
Тип развёртки : Прогрессивная
Метод сжатия : С потерями
Бит/(Пиксели*Кадры) : 0.139
Размер потока : 156 Мбайт (85%)
Библиотека кодирования : XviD 64

Аудио
Идентификатор : 1
Формат : MPEG Audio
Версия формата : Version 1
Профиль формата : Layer 3
Режим : Joint stereo
Расширение режима : MS Stereo
Идентификатор кодека : 55
Идентификатор кодека/Подсказка : MP3
Продолжительность : 28 м.
Вид битрейта : Постоянный
Битрейт : 128 Кбит/сек
Каналы : 2 канала
Частота : 44,1 КГц
Метод сжатия : С потерями
Размер потока : 26,1 Мбайт (14%)
Выравнивание : Разделение по промежуткам
Продолжительность промежутка : 40 мс. (1,00 видеокадр)
Время предзагрузки промежутка : 500 мс.


Mongrels скачать торрент


pb.wtf



Скачать Ублюдки через торрент http://pic.kartinco.top/images/2/xa3jl29q12.jpg Скачать фильм Ублюдки через торрент бесплантно в хорошем качестве Описание: Действие сериала вращается вокруг жизни пяти антропоморфных животных. Метросексуала лиса, эгоцентричной афганской борзой, ... 9.7 10 3
Info! Золотая раздача, скачанное не засчитывается.
Торрент: Зарегистрирован [2013-02-26 19:26] · скачан: 38 раз
Статус: √ проверено
Размер: 1.7 GB
Как cкачать? Как скачать Ублюдки через торрент | qTorrent

% Раздел Тема Автор DL S | L
Зарубежные сериалы [ 1.85 GB ] Ублюдки / Mongrels / Сезон: 1 / Серии 1-8 из 8 / [2010 TVRip] DVO KвК 0xiDESK Скачать
1 | 0

28-11-2019 20:33  

Отключить всю рекламу на сайте

    Дорогой пользователь! Огромная просьба, поблагодарите релизера, оцените раздачу и оставьте свои комментарий, если Вы скачали Ублюдки через торрент бесплатно! Внесите свою лепту в развитие PiratBit!
    Комментировать посты могут только пользователи прошедшие не сложную регистрацию
    Показать сообщения:    

    Ублюдки через торрент
    Скачать бесплатно Ублюдки
    Ублюдки скачать торрент
    Ублюдки смотреть онлайн
    Cкачать фильм Ублюдки бесплатно
    Ублюдки скачать торрент в хорошем качестве
    Ублюдки смотреть онлайн бесплатно в хорошем качестве


    Вы не можете начинать темы
    Вы не можете отвечать на сообщения
    Вы не можете редактировать свои сообщения
    Вы не можете удалять свои сообщения
    Вы не можете голосовать в опросах
    Вы не можете прикреплять файлы к сообщениям
    Вы можете скачивать файлы