новый адрес
Ссылка на приватное зеркало всего за 1$. Внимание количество ограничено!!!

iTunes

1+1

iTunes

мы

iTunes

1

iTunes

Чернобыль

iTunes

Ральф против интернета

Лицензия

ПШазам

Лицензия

Оно 2

Лицензия

30
pack

Вам бонус

ВАЖНО

!!Акция!!

Alien_RageХит недели

RePack

Resident Evil 21

ИГРА 18+

pack

RePack

jed

!!Акция!!

Alien_Rage

RePack

fifa19

RePack

Assassins Creed: Odyssey

RePack

NEED FOR SPEED™ PAYBACK

3 сезон

9 сезон

Бесстыжие 9 сезон

Все сериалы

все сериалы на PB.wtf

RePack

FAR CRY 5
Ребята, катастрофически не хватает 1900р. для оплаты серверов за Октябрь (всвязи с блокировками трафик упал в 3 раза), 1-2р., выручайте.
  

Осенний марафон (Георгий Данелия) [1979 г., драма, мелодрама, комедия, DVDRip] pb.wtf

Осенний марафон через торрент pb.wtf

Размер: 1.46 GB | Добавлен: 6 лет 8 мес. назад | Торрент скачан:27 раз
Скачать  

26-02-2013 21:25 Осенний марафон Скачать торрент  

Осенний марафон

Год выпуска: 1979
Страна: СССР
Жанр: драма, мелодрама, комедия
Продолжительность: 01:28:44
Перевод: Не требуется

Режиссер: Георгий Данелия
Сценарий: Александр Володин

Премьера в мире: 23 ноября 1979



В ролях: Олег Басилашвили, Марина Неёлова, Ольга Богданова, Борислав Брондуков, Галина Волчек, Наталья Гундарева, Людмила Иванова, Николай Крючков, Норберт Кухинке, Евгений Леонов, Дмитрий Матвеев, Вадим Медведев, Никита Подгорный

Описание: У талантливого педагога и переводчика Бузыкина нерешительный характер. Он не может оставить жену и уйти к любимой женщине, не может отказать эксплуатирующей его талант сокурснице, терпит посещения доморощенного философа-алкаша, а когда, наконец, решается на смелый шаг — терпит фиаско, так как по природе мягок и податлив, как воск.
* Норберт Кухинке был иностранным корреспондентом журнала «Шпигель» из ФРГ. После того, как Георгий Данелия взял его на роль немецкого профессора Хансена, возникли разногласия на уровне ЦК КПСС. Если профессор немецкий, то возникла бы необходимость пояснить, из ФРГ он, или из ГДР. Но при любом раскладе стало бы невозможно продать фильм либо в западногерманский, либо в восточногерманский прокат. Поэтому национальность профессора Хансена была заменена на датскую.
* Среди выпускников ЛГУ / СПбГУ фильм известен невероятными перемещениями Бузыкина по главному зданию университета и вокруг него. Так, в одной из сцен Бузыкин входит в здание Двенадцати коллегий, после чего сдает одежду в несуществовавший никогда гардероб, расположенный в проходе с площадки второго этажа лестницы (от входа с Менделеевской линии) в главный коридор. Затем он поднимается по той же лестнице на третий этаж, на котором не расположено ничего, кроме музея истории университета (в помещении бывшей университетской церкви) и входа на хоры актового зала. Поднявшись на третий этаж, он оказывается в главном коридоре второго этажа на пути к дверям, через которые он мог бы туда войти. После чего Бузыкин, заметив Шершавникова, чтобы избежать встречи с ним, заскакивает в одну из боковых дверей и оказывается в помещении университетской библиотеки (в жизни расположена в том конце коридора, откуда он шел).
* В сцене, где Бузыкин попадает под машину в Таможенном переулке, машина на большой скорости едет неизвестно откуда. В том месте, откуда она выезжает, нет никакой улицы: примерно в пятидесяти метрах от места столкновения по курсу движения машины расположен Институт акушерства и гинекологии им. Отта. В этом месте машины могут только поворачивать на Таможенный переулок на относительно малых скоростях.
* Наталья Гундарева играет стареющею жену главного героя, с которым у них взрослая, уже замужем дочь. Между тем, на момент выхода фильма Гундаревой был лишь 31 год, и она на год моложе Марины Неёловой, играющей роль молодой любовницы.
Качество: DVDRip
Формат: AVI
Видео кодек: DivX
Аудио кодек: AC3
Видео: 704x528, (4:3), 25,000 кадров/сек, 1903 Кбит/сек, 0.205 бит/пикс
Аудио#1: 48,0 КГц, AC3, 6 каналов, 448 Кбит/сек
скриншот  скриншот  скриншот  скриншот  скриншот  скриншот  

Общее
Полное имя : D:загрузкиOsenniy_marafon_DVDRip.avi
Формат : AVI
Формат/Информация : Audio Video Interleave
Размер файла : 1,46 Гбайт
Продолжительность : 1 ч. 28 м.
Общий поток : 2361 Кбит/сек
Программа кодирования : VirtualDubModRus 1.5.10.2 (build 2542/release)
Библиотека кодирования : VirtualDubMod build 2542/release

Видео
Идентификатор : 0
Формат : MPEG-4 Visual
Параметр BVOP формата : 1
Параметр QPel формата : Нет
Параметр GMC формата : Без точки перехода
Параметр матрицы формата : Default (H.263)
Режим смешивания : Сжатый битовый поток
Идентификатор кодека : DX50
Идентификатор кодека/Подсказка : DivX 5
Продолжительность : 1 ч. 28 м.
Битрейт : 1903 Кбит/сек
Ширина : 704 пикселя
Высота : 528 пикселей
Соотношение сторон : 4:3
Частота кадров : 25,000 кадров/сек
Цветовое пространство : YUV
Субдискретизация насыщенности : 4:2:0
Битовая глубина : 8 бит
Тип развёртки : Прогрессивная
Метод сжатия : С потерями
Бит/(Пиксели*Кадры) : 0.205
Размер потока : 1,18 Гбайт (81%)
Библиотека кодирования : DivX 6.8.3-6.8.4 (UTC 2008-06-07)

Аудио
Идентификатор : 1
Формат : AC-3
Формат/Информация : Audio Coding 3
Расширение режима : CM (complete main)
Параметр Endianness формата : Big
Идентификатор кодека : 2000
Продолжительность : 1 ч. 28 м.
Вид битрейта : Постоянный
Битрейт : 448 Кбит/сек
Каналы : 6 каналов
Расположение каналов : Front: L C R, Side: L R, LFE
Частота : 48,0 КГц
Битовая глубина : 16 бит
Метод сжатия : С потерями
Размер потока : 284 Мбайт (19%)
Выравнивание : Соединение по промежуткам
Продолжительность промежутка : 40 мс. (1,00 видеокадр)
Время предзагрузки промежутка : 512 мс.

pb.wtf



Скачать Осенний марафон через торрент http://pic.kartinco.top/images/2/sbslhx2arm.jpg Скачать фильм Осенний марафон через торрент бесплантно в хорошем качестве Описание: У талантливого педагога и переводчика Бузыкина нерешительный характер. Он не может оставить жену и уйти к любимой женщине, не ... 10 10 7
Info! Золотая раздача, скачанное не засчитывается.
Торрент: Зарегистрирован [2013-02-26 21:25] · скачан: 27 раз
Статус: √ проверено
Размер: 1.46 GB
Как cкачать? Как скачать Осенний марафон через торрент | qTorrent

% Раздел Тема Автор DL S | L
Кино СССР [ 6.43 GB ] Осенний марафон [1979 HDTVRip 1080р от KORSAR] filbi1976 Скачать
1 | 0
Eurodance, Technopop, Disco (сборники) (mp3) [ 665 MB ] VA - Хитовый осенний марафон Hit FM 2013 / MP3 / 256 kbps / Pop Dance megatoxa Скачать
1 | 0


>> Переходим по ссылке <<
Автоматически подгузится скрипт который настроит ваш браузер на выигрыш!!
После настройки браузера вероятность выигрыша увеличется в 4.1-4,6 раза.
В течение 6 секунд вам откроется настроенный интерфейс казино, с повышенной вероятностью выигрыша.






Отзывы и комментарии о схеме читаем и пишем здесь: ---> Отзывы и комментарии о схеме

Новые благодарочки в телеграм довольных пользователей:
скриншот   скриншот   скриншот   скриншот   скриншот
    Дорогой пользователь! Огромная просьба, поблагодарите релизера, оцените раздачу и оставьте свои комментарий, если Вы скачали Осенний марафон через торрент бесплатно! Внесите свою лепту в развитие PiratBit!
    Комментировать посты могут только пользователи прошедшие не сложную регистрацию
    Показать сообщения:    

    Осенний марафон через торрент
    Скачать бесплатно Осенний марафон
    Осенний марафон скачать торрент
    Осенний марафон смотреть онлайн
    Cкачать фильм Осенний марафон бесплатно
    Осенний марафон скачать торрент в хорошем качестве
    Осенний марафон смотреть онлайн бесплатно в хорошем качестве


    Вы не можете начинать темы
    Вы не можете отвечать на сообщения
    Вы не можете редактировать свои сообщения
    Вы не можете удалять свои сообщения
    Вы не можете голосовать в опросах
    Вы не можете прикреплять файлы к сообщениям
    Вы можете скачивать файлы