Ссылка на приватное зеркало нашего сайта всего за 1$. Внимание количество ограничено!!!

2 сезон

iTunes

1 сезон

1

iTunes

iTunes

iTunes

1 сезон

RePack

30

ИГРА 18+

pack

ВАЖНО

!!Акция!!

Alien_RageХит недели

RePack

MK11
pack

Забери бонус

RePack

jed

!!Акция!!

Alien_Rage

RePack

fifa19

RePack

Assassins Creed: Odyssey

RePack

NEED FOR SPEED™ PAYBACK

4 сезон

9 сезон

Бесстыжие 9 сезон

Все сериалы

все сериалы на PB.wtf

RePack

FAR CRY 5
  

Ральф / Wreck-It Ralph (Рич Мур) [2012 г., мультфильм, комедия, приключения, семейный, BDRip-AVC, DUB, лицензия] pb.wtf

Ральф через торрент pb.wtf

Размер: 2.04 GB | Добавлен: 7 лет 7 мес. назад | Торрент скачан:804 раза
Скачать  

27-02-2013 11:01 Ральф Скачать торрент  

Ральф / Wreck-It Ralph

Год выпуска: 2012
Страна: США
Жанр: мультфильм, комедия, приключения, семейный
Продолжительность: 01:41:16
Перевод: Дубляж, Лицензия
Субтитры: Russian, English [Full, SDH]

Режиссер: Рич Мур
Продюссер: Кларк Спенсер, Моника Лаго-Кэйтис, Джон Лассетер
Сценарий: Фил Джонстон, Дженнифер Ли, Рич Мур

Мировой рейтинг IMDB 7.90 (59 271)


В ролях: Джон Си Райли, Джек МакБрайер, Сара Силверман, Джейн Линч, Алан Тьюдик, Минди Калинг, Джо Ло Трульо, Эд О’Нил, Деннис Хейсбёрт, Эди МакКлёрг, Станислав Дужников, Александр Гудков, Наталия Медведева, Регина Щукина, Валентин Морозов

Описание: Ральф — второстепенный персонаж восьмибитной компьютерной игры, и ему надоело находиться в тени главного героя, мастера на все руки Феликса, который всегда появляется, чтобы «исправить» ситуацию! После тридцати лет добросовестной работы в роли злодея, в течение которых все похвалы выпадали на долю Феликса, Ральф больше не хочет быть плохим.Он решает отправиться в путешествие по аркадным играм разных жанров, чтобы доказать всем, что и он тоже может быть героем. На своем пути Ральф встречает героев разных игр — хладнокровную сержанта Калхун из игры Hero’s Duty, оберегающую планету от нашествия инопланетных захватчиков, и сладкую на вид, но острую на язычок Сластену фон Дю, чье существование в гоночном симуляторе Sugar Rush внезапно оказывается под угрозой. Наконец-то Ральфу выпадает шанс показать, что он умеет не только разрушать!

Качество: BDRip-AVC
Формат: MKV
Видео кодек: H.264
Аудио кодек: AC3
Видео: 1024 x 428 (2.393) at 23.976 fps AVC at 1855 Кбит/сек
Аудио#1: AC-3 at 384 Кбит/сек 6 каналов, 48,0 КГц RUS
Аудио#2: AC-3 at 640 Кбит/сек 6 каналов, 48,0 КГц ENG
Релиз от: Sудья
Общее
Уникальный идентификатор : 175311978244633652180040007953520529560 (0x83E3DBDDAA97203683945CE8FC981098)
Полное имя : D:ФильмыRalf.2012.D.BDRip.AVC.Sудья.mkv
Формат : Matroska
Версия формата : Version 4 / Version 2
Размер файла : 2,04 Гбайт
Продолжительность : 1 ч. 41 м.
Общий поток : 2890 Кбит/сек
Название фильма : Ralf.2012.D.BDRip-AVC.by Sудьяю
Дата кодирования : UTC 2013-02-27 10:36:45
Программа кодирования : mkvmerge v6.0.0 ('Coming Up For Air') built on Jan 20 2013 09:52:00
Библиотека кодирования : libebml v1.3.0 + libmatroska v1.4.0

Видео
Идентификатор : 1
Формат : AVC
Формат/Информация : Advanced Video Codec
Профиль формата : High@L5.1
Параметр CABAC формата : Нет
Параметр ReFrames формата : 4 кадра
Идентификатор кодека : V_MPEG4/ISO/AVC
Продолжительность : 1 ч. 41 м.
Битрейт : 1855 Кбит/сек
Ширина : 1024 пикселя
Высота : 428 пикселей
Соотношение сторон : 2,40:1
Режим частоты кадров : Постоянный
Частота кадров : 23,976 кадра/сек
Цветовое пространство : YUV
Субдискретизация насыщенности : 4:2:0
Битовая глубина : 8 бит
Тип развёртки : Прогрессивная
Бит/(Пиксели*Кадры) : 0.177
Размер потока : 1,28 Гбайт (63%)
Заголовок : Ralph.2012.AVC.BluRay.DD5.1.x264
Библиотека кодирования : x264 core 115 r2008bm 4c552d8
Настройки программы : cabac=0 / ref=1 / deblock=0:0:0 / analyse=0x3:0x3 / me=dia / subme=1 / psy=1 / psy_rd=1.00:0.00 / mixed_ref=0 / me_range=16 / chroma_me=1 / trellis=0 / 8x8dct=1 / cqm=0 / deadzone=21,11 / fast_pskip=1 / chroma_qp_offset=0 / threads=1 / sliced_threads=0 / nr=0 / decimate=1 / interlaced=0 / bluray_compat=0 / constrained_intra=0 / bframes=3 / b_pyramid=2 / b_adapt=1 / b_bias=0 / direct=1 / weightb=0 / open_gop=0 / weightp=0 / keyint=250 / keyint_min=23 / scenecut=40 / intra_refresh=0 / rc=abr / mbtree=0 / bitrate=1855 / ratetol=1.0 / qcomp=0.60 / qpmin=0 / qpmax=69 / qpstep=4 / ip_ratio=1.40 / pb_ratio=1.30 / aq=1:1.00
Язык : English
Default : Да
Forced : Да

Аудио #1
Идентификатор : 2
Формат : AC-3
Формат/Информация : Audio Coding 3
Расширение режима : CM (complete main)
Параметр Endianness формата : Big
Идентификатор кодека : A_AC3
Продолжительность : 1 ч. 41 м.
Вид битрейта : Постоянный
Битрейт : 384 Кбит/сек
Каналы : 6 каналов
Расположение каналов : Front: L C R, Side: L R, LFE
Частота : 48,0 КГц
Битовая глубина : 16 бит
Метод сжатия : С потерями
Размер потока : 278 Мбайт (13%)
Заголовок : DD 5.1 @ 384 kbps - Dub, R5
Язык : Russian
Default : Да
Forced : Да

Аудио #2
Идентификатор : 3
Формат : AC-3
Формат/Информация : Audio Coding 3
Расширение режима : CM (complete main)
Параметр Endianness формата : Big
Идентификатор кодека : A_AC3
Продолжительность : 1 ч. 41 м.
Вид битрейта : Постоянный
Битрейт : 640 Кбит/сек
Каналы : 6 каналов
Расположение каналов : Front: L C R, Side: L R, LFE
Частота : 48,0 КГц
Битовая глубина : 16 бит
Метод сжатия : С потерями
Размер потока : 463 Мбайт (22%)
Заголовок : DD 5.1 @ 640 kbps
Язык : English
Default : Нет
Forced : Нет

Текст #1
Идентификатор : 4
Формат : UTF-8
Идентификатор кодека : S_TEXT/UTF8
Идентификатор кодека/Информация : UTF-8 Plain Text
Язык : Russian
Default : Нет
Forced : Нет

Текст #2
Идентификатор : 5
Формат : UTF-8
Идентификатор кодека : S_TEXT/UTF8
Идентификатор кодека/Информация : UTF-8 Plain Text
Язык : English
Default : Нет
Forced : Нет


Ральф скачать торрент


pb.wtf



Скачать Ральф через торрент http://pic.kartinco.top/images/2/u6uyhk3jik.png Скачать фильм Ральф через торрент бесплантно в хорошем качестве Описание: Ральф — второстепенный персонаж восьмибитной компьютерной игры, и ему надоело находиться в тени главного героя, мастера на все ... 10 10 10
Info! Золотая раздача, скачанное не засчитывается.
Торрент: Зарегистрирован [2013-02-27 11:01] · скачан: 804 раз
Статус: √ проверено
Размер: 2.04 GB
Как cкачать? Как скачать Ральф через торрент | qTorrent

% Раздел Тема Автор DL S | L
Ultra HD (UHD: 2K, 4K, 8K) [ 43.94 GB ] Ральф / Wreck-It Ralph [2012 Мультфильм UHD BDRemux 2160p] 2xAVO+DUB [] bober100 Скачать
1 | 0
Ultra HD (UHD: 2K, 4K, 8K) [ 45.08 GB ] Ральф / Wreck-It Ralph [2012 мультфильм UHD BDRemux 2160p] DUB + AVO [Ю. Сербин] sheker187 Скачать
1 | 0
Зарубежные Мультфильмы (BDRip 1080p, 720p, Blu-ray, BD-Remux) [ 5.26 GB ] Ральф / Wreck-It Ralph [2012 мультфильм BDRip 1080p HEVC ] Мичман37 Скачать
2 | 0
Иностранные мультфильмы [ 3.46 GB ] Ральф / Wreck-It Ralph [2012 BDRip-AVC] [Локализованный видеоряд] + 2x[AVO] + Dub killermax2013 Скачать
1 | 0
Мультфильмы (48-60 fps) [ 3.76 GB ] Ральф / Wreck-It Ralph [2012 мультфильм BDRip 720p] [60 FPS] killermax2013 Скачать
3 | 0
Иностранные мультфильмы [ 2.05 GB ] Ральф / Wreck-It Ralph [2012 мультфильм HDRip] [AVO] + [AVO] killermax2013 Скачать
1 | 0
Иностранные мультфильмы [ 1.46 GB ] Ральф / Wreck-It Ralph [2012 мультфильм HDRip DUB лицензия] oleg8 Скачать
1 | 0

28-11-2019 20:33  

Отключить всю рекламу на сайте

    Дорогой пользователь! Огромная просьба, поблагодарите релизера, оцените раздачу и оставьте свои комментарий, если Вы скачали Ральф через торрент бесплатно! Внесите свою лепту в развитие PiratBit!
    Комментировать посты могут только пользователи прошедшие не сложную регистрацию
    Показать сообщения:    

    Ральф через торрент
    Скачать бесплатно Ральф
    Ральф скачать торрент
    Ральф смотреть онлайн
    Cкачать фильм Ральф бесплатно
    Ральф скачать торрент в хорошем качестве
    Ральф смотреть онлайн бесплатно в хорошем качестве


    Вы не можете начинать темы
    Вы не можете отвечать на сообщения
    Вы не можете редактировать свои сообщения
    Вы не можете удалять свои сообщения
    Вы не можете голосовать в опросах
    Вы не можете прикреплять файлы к сообщениям
    Вы можете скачивать файлы