Ссылка на приватное зеркало всего за 1$. Внимание количество ограничено!!!

iTunes

iTunes

iTunes

1

iTunes

iTunes

iTunes

iTunes

iTunes

30
pack

$ от Little Big

ВАЖНО

!!Акция!!

Alien_RageХит недели

RePack

Resident Evil 21

ИГРА 18+

pack

RePack

jed

!!Акция!!

Alien_Rage

RePack

fifa19

RePack

Assassins Creed: Odyssey

RePack

NEED FOR SPEED™ PAYBACK

4 сезон

9 сезон

Бесстыжие 9 сезон

Все сериалы

все сериалы на PB.wtf

RePack

FAR CRY 5
  

Окончательный анализ / Final Analysis (Фил Джоану) [1992 г., триллер, драма, мелодрама, HDTV 720p, Профессиональный (дублированный)] pb.wtf

Окончательный анализ через торрент pb.wtf

Размер: 5.75 GB | Добавлен: 7 лет 4 мес. назад | Торрент скачан:13 раз
Скачать  

28-02-2013 09:12 Окончательный анализ Скачать торрент  


Окончательный анализ / Final Analysis
«Кого-то соблазнили. Кого-то «подставили». А пока разбирались... Кого-то убили.»
Год выпуска: 1992
Страна: США
Жанр: триллер, драма, мелодрама
Продолжительность: 01:59:31
Перевод: Профессиональный (дублированный)


Режиссер: Фил Джоану
Продюссер: Пол Юнгер Уитт, Чарльз Ровен, Тони Томас
Сценарий: Уэсли Стрик, Роберт Бёрджер


Премьера в мире: 7 февраля 1992
Релиз на DVD: 22 февраля 2012, «CP-Digital»


В ролях: Ричард Гир ,Ким Бейсингер ,Ума Турман ,Эрик Робертс ,Пол Гилфойл ,Кит Дэвид ,Роберт Харпер ,Агустин Родригес ,Рита Зохар ,Джордж Мёрдок.

Описание: Барр, известный специалист в области психиатрии, очарован ослепительной сестрой своей пациентки. Он начинает ухаживать за ней, не подозревая, что попадает в хитроумную и опасную ловушку…

Его возлюбленная замужем за мафиози и панически боится супруга. Но однажды вечером она убивает благоверного. Доктор помогает замести следы, но вскоре начинает подозревать, что его обманывают…


Качество: HDTV 720p
Формат: MKV
Видео кодек: H.26x
Аудио кодек: AC3
Видео: 1280x720,6 369 Kbps,50.000 fps
Аудио#1: 192 Kbps, 2 channels,48.0 KHz-Russian
Аудио#2: 192 Kbps,2 channels,48.0 KHz-English


General
Unique ID : 220471313644325595843695413212457330614 (0xA5DD3B00E85BEF45BC1DF691C5CDE7B6)
Complete name : D:Final Analysis (1992) HDTV 720p.mkv
Format : Matroska
Format version : Version 1
File size : 5.75 GiB
Duration : 1h 59mn
Overall bit rate mode : Variable
Overall bit rate : 6 891 Kbps
Encoded date : UTC 2011-09-07 18:55:57
Writing application : mkvmerge v2.2.0 ('Turn It On Again') built on Mar 4 2008 12:58:26
Writing library : libebml v0.7.7 + libmatroska v0.8.1

Video
ID : 1
Format : AVC
Format/Info : Advanced Video Codec
Format profile : High@L4.0
Format settings, CABAC : Yes
Format settings, ReFrames : 5 frames
Format settings, GOP : M=16, N=32
Codec ID : V_MPEG4/ISO/AVC
Duration : 1h 59mn
Bit rate mode : Variable
Bit rate : 6 369 Kbps
Maximum bit rate : 12.0 Mbps
Width : 1 280 pixels
Height : 720 pixels
Display aspect ratio : 16:9
Frame rate mode : Constant
Frame rate : 50.000 fps
Color space : YUV
Chroma subsampling : 4:2:0
Bit depth : 8 bits
Scan type : Progressive
Bits/(Pixel*Frame) : 0.138
Stream size : 5.32 GiB (92%)
Title : Final Analysis (1992) HDTV 720p
Language : German
Default : Yes
Forced : No
Color primaries : BT.709
Transfer characteristics : BT.709
Matrix coefficients : BT.709

Audio #1
ID : 2
Format : AC-3
Format/Info : Audio Coding 3
Format profile : Dolby Digital
Mode extension : CM (complete main)
Format settings, Endianness : Big
Codec ID : A_AC3
Duration : 1h 59mn
Bit rate mode : Constant
Bit rate : 192 Kbps
Channel(s) : 2 channels
Channel positions : Front: L R
Sampling rate : 48.0 KHz
Bit depth : 16 bits
Compression mode : Lossy
Stream size : 164 MiB (3%)
Title : Дубляж
Language : Russian
Default : Yes
Forced : No

Audio #2
ID : 3
Format : AC-3
Format/Info : Audio Coding 3
Format profile : Dolby Digital
Mode extension : CM (complete main)
Format settings, Endianness : Big
Codec ID : A_AC3
Duration : 1h 59mn
Bit rate mode : Constant
Bit rate : 192 Kbps
Channel(s) : 2 channels
Channel positions : Front: L R
Sampling rate : 48.0 KHz
Bit depth : 16 bits
Compression mode : Lossy
Stream size : 164 MiB (3%)
Title : Оригинал
Language : English
Default : No
Forced : No

pb.wtf



Скачать Окончательный анализ через торрент http://s002.youpic.su/pictures/1361998800/5e0a8a3760e3e593a856997e82c7fdcc.jpg Скачать фильм Окончательный анализ через торрент бесплантно в хорошем качестве Описание: Барр, известный специалист в области психиатрии, очарован ослепительной сестрой своей пациентки. Он начинает ухаживать за ней, не ... 5 10 1
Info! Золотая раздача, скачанное не засчитывается.
Торрент: Зарегистрирован [2013-02-28 09:12] · скачан: 13 раз
Статус: √ проверено
Размер: 5.75 GB
Как cкачать? Как скачать Окончательный анализ через торрент | qTorrent

% Раздел Тема Автор DL S | L
Фильмы до 2000 г. [ 1.98 GB ] Окончательный анализ / Final Analysis [1992 DVDRip] DUB + AVO gunk Скачать
1 | 0
Фильмы до 2000 г. [ 1.45 GB ] Окончательный анализ / Final Analysis [1992 HDTVRip] DUB stalonе Скачать
1 | 0

28-11-2019 20:33  

Отключить всю рекламу на сайте

    Дорогой пользователь! Огромная просьба, поблагодарите релизера, оцените раздачу и оставьте свои комментарий, если Вы скачали Окончательный анализ через торрент бесплатно! Внесите свою лепту в развитие PiratBit!
    Комментировать посты могут только пользователи прошедшие не сложную регистрацию
    Показать сообщения:    

    Окончательный анализ через торрент
    Скачать бесплатно Окончательный анализ
    Окончательный анализ скачать торрент
    Окончательный анализ смотреть онлайн
    Cкачать фильм Окончательный анализ бесплатно
    Окончательный анализ скачать торрент в хорошем качестве
    Окончательный анализ смотреть онлайн бесплатно в хорошем качестве


    Вы не можете начинать темы
    Вы не можете отвечать на сообщения
    Вы не можете редактировать свои сообщения
    Вы не можете удалять свои сообщения
    Вы не можете голосовать в опросах
    Вы не можете прикреплять файлы к сообщениям
    Вы можете скачивать файлы