Мега распродажа FORZA HORIZON 4 ULTIMATE+ВСЕ DLC+ОНЛАЙН всего за 499р. 349 руб. (супер цена). Внимание количество ограничено!!!

iTunes

1+1

iTunes

мы

iTunes

1

1 сезон

Чернобыль

1 сезон

Ральф против интернета

Лицензия

ПШазам

8 сезон

Игра престолов

Лицензия

30
pack

ВАЖНО

!!Акция!!

Alien_RageХит недели

RePack

Resident Evil 21

ИГРА 18+

pack

RePack

Metro:Exodus

!!Акция!!

Alien_Rage

RePack

fifa19

RePack

Assassins Creed: Odyssey

RePack

NEED FOR SPEED™ PAYBACK

3 сезон

9 сезон

Бесстыжие 9 сезон

Все сериалы

все сериалы на PB.wtf

RePack

FAR CRY 5
Ребята, катастрофически не хватает 2730р. для оплаты серверов за ИЮНЬ (всвязи с блокировками трафик упал в 3 раза), 1-2р., выручайте.
  

Мэри Поппинс / Mary Poppins (Роберт Стивенсон) [1964 г., фэнтези, комедия, мюзикл, семейный, DVDRip,(1080p), DUB, лицензия] pb.wtf

Мэри Поппинс через торрент pb.wtf

Размер: 4.16 GB | Добавлен: 6 лет 4 мес. назад | Торрент скачан:12 раз
Скачать  

01-03-2013 10:49 Мэри Поппинс Скачать торрент  

Мэри Поппинс / Mary Poppins

Год выпуска: 1964
Страна: США
Жанр: фэнтези, комедия, мюзикл, семейный
Продолжительность: 02:13:44
Перевод: Дублированный
Тип релиза: Лицензия

Режиссер: Роберт Стивенсон
Продюссер: Уолт Дисней, Билл Уолш
Сценарий: Памела Линдон Трэверс, Билл Уолш, Don DaGradi

Бюджет: $6 000 000
Премьера в мире: 27 августа 1964

MPAA: G -Без возростных ограничений
IMDb: 7.70 (58 308)
Кинопоиск: 7.639 1066

В ролях: Джули Эндрюс,Дик Ван Дайк,Дэвид Томлинсон,Глинис Джонс

Описание: Семейство Бенкс озабоченно поисками няни для своих детей. И как это бывает только в сказке, она появилась прямо из воздуха, прекрасная, ни на кого не похожая. Как раз такая, какую мечтали бы иметь в своем доме всякие любящие родители.

У неё не просто цветущий вид. Она непросто лучше всех умеет готовить, ходить по магазинам, одеваться, танцевать и воспитывать детей. Это всё лишь элементы, лишь составляющие. Нет, тут нечто большее — она именно совершенна, именно лишена недостатков, ибо она — сказочная. Как же не влюбиться в такую…

Доп. информация: релиз на DVD 30 ноября 2010, «Уолт Дисней Компани СНГ»
Этот фильм относится к периоду в Голливуде, когда снимались очень красивые и очень дорогие по цене и сердцу зрителя фильмы. Данное произведение вышло в прокат в 1964 году и собрало невиданную кассу. Обогнав, даже самый знаменитый бродвейский мюзикл: «Моя прекрасная леди».

Ну так разложим по полочкам почему данный фильм очень популярен.

Во-первых, конечно, это правообладатель данного фильма Уолт Дисней. Редко, когда данная кампания разочаровала фильмами направленными на детскую публику. И этот фильм не стал исключением.

Во-вторых, это конечно сценарий. Фильм является очень удачным примером, как надо экранизировать книги

В-третьих, это выбор на главную женскую роль Джулии Эндрюс. Она так хорошо вписалась в образ Мэри Поппинс, что не верится, что она сказочный персонаж

В-четвертых, великолепно описано семейство Бенкс. Родители не интересует, что происходит с детьми. Их интересует только собственные интересы

В-пятых, конечно в знаменитом мюзикле должны быть не менее знаменитые песни. Вот например, эти песни: «Дым полезай в трубу», «Ложку сахара добавь», и моя любимая песня «supercalifragilisticexpialidocious!»

В-шестых, очень удачно показано как трагичен мир взрослых. Эпизод в банке.

В-седьмых, в этом фильме есть некий шарм

А так это очень добрый, милый и местами даже смешной фильм. Всем советую посмотреть !
Качество: DVDRip.(1080p)
Формат: MPEG-4
Видео кодек:AVC
Аудио кодек: AC3
Видео: 4001 Кбит/сек,1920х1080 (16:9),23,976 кадр/сек, AVC
Аудио#1: 448 Кбит/сек,48,0 КГц,16 бит,6 каналов,AC3










Общее
Полное имя : D:TorrentMjeri.Poppins.1964.DVDRip.(1080p).mp4
Формат : MPEG-4
Профиль формата : Base Media
Идентификатор кодека : isom
Размер файла : 4,16 Гбайт
Продолжительность : 2 ч. 13 м.
Общий поток : 4452 Кбит/сек
Дата кодирования : UTC 2013-02-28 08:49:32
Дата пометки : UTC 2013-02-28 08:49:32
Программа кодирования : Lavf51.12.1

Видео
Идентификатор : 1
Формат : AVC
Формат/Информация : Advanced Video Codec
Профиль формата : Baseline@L4.0
Параметр CABAC формата : Нет
Параметр ReFrames формата : 1 кадр
Параметры GOP формата : M=1, N=12
Идентификатор кодека : avc1
Идентификатор кодека/Информация : Advanced Video Coding
Продолжительность : 2 ч. 13 м.
Вид битрейта : Переменный
Битрейт : 4001 Кбит/сек
Максимальный битрейт : 6000 Кбит/сек
Ширина : 1920 пикс.
Высота : 1080 пикс.
Соотношение сторон : 16:9
Режим частоты кадров : Постоянный
Частота кадров : 23,976 кадр/сек
Частота кадров в оригинале : 24,000 кадр/сек
Цветовое пространство : YUV
Подвыборка цветности : 4:2:0
Битовая глубина : 8 бит
Тип развёртки : Прогрессивная
Бит/(Пиксели*Кадры) : 0.080
Размер потока : 3,74 Гбайт (90%)
Дата кодирования : UTC 2013-02-28 08:49:32
Дата пометки : UTC 2013-02-28 08:49:32

Аудио
Идентификатор : 2
Формат : AC-3
Формат/Информация : Audio Coding 3
Расширение режима : CM (complete main)
Идентификатор кодека : ac-3
Продолжительность : 2 ч. 13 м.
Вид битрейта : Постоянный
Битрейт : 448 Кбит/сек
Каналы : 6 каналов
Расположение каналов : Front: L C R, Side: L R, LFE
Частота : 48,0 КГц
Битовая глубина : 16 бит
Метод сжатия : С потерями
Размер потока : 429 Мбайт (10%)
Дата кодирования : UTC 2013-02-28 08:49:32
Дата пометки : UTC 2013-02-28 08:49:32

pb.wtf



Скачать Мэри Поппинс через торрент http://pic.kartinco.top/images/2/lxte4ujgpm.jpg Скачать фильм Мэри Поппинс через торрент бесплантно в хорошем качестве Описание: Семейство Бенкс озабоченно поисками няни для своих детей. И как это бывает только в сказке, она появилась прямо из воздуха, ... 10 10 1
Info! Золотая раздача, скачанное не засчитывается.
Торрент: Зарегистрирован [2013-03-01 10:49] · скачан: 12 раз
Статус: √ проверено
Размер: 4.16 GB
Как cкачать? Как скачать Мэри Поппинс через торрент | qTorrent

% Раздел Тема Автор DL S | L
Фильмы 2018 [DVDrip, WEB-DLRip, HDrip] (DUB, MVO) [ 1.45 GB ] Мэри Поппинс возвращается / Mary Poppins Returns [2018 мюзикл BDRip-AVC] DUB [] - ExKinoRay Enigma2010 Скачать
30 | 1
Фильмы [HD 720p, 1080p] (Хороший звук DUB, MVO) [ 13.58 GB ] Мэри Поппинс возвращается / Mary Poppins Returns [2018 мюзикл BDRip 1080p] DUB [] + MVO [HDRezka studio] sheker187 Скачать
2 | 0
Фильмы (Blu-ray, BD-Remux, HDDVD) [ 29.43 GB ] Мэри Поппинс возвращается / Mary Poppins Returns [2018 мюзикл BDRemux 1080p] DUB [] + MVO [HDRezka studio] sheker187 Скачать
1 | 0
Ultra HD (UHD: 2K, 4K, 8K) — видео сверхвысокой чёткости [ 53.8 GB ] Мэри Поппинс возвращается / Mary Poppins Returns [2018 мюзикл UHD BDRemux 2160p] DUB [] + MVO [HDRezka studio] sheker187 Скачать
1 | 0


>> Регистрируемся здесь <<






Отзывы и комментарии о схеме читаем и пишем здесь: ---> Отзывы и комментарии о схеме

Новые благодарочки в телеграм довольных пользователей:
скриншот   скриншот   скриншот   скриншот   скриншот
    Дорогой пользователь! Огромная просьба, поблагодарите релизера, оцените раздачу и оставьте свои комментарий, если Вы скачали Мэри Поппинс через торрент бесплатно! Внесите свою лепту в развитие PiratBit!
    Комментировать посты могут только пользователи прошедшие не сложную регистрацию
    Показать сообщения:    

    Мэри Поппинс через торрент
    Скачать бесплатно Мэри Поппинс
    Мэри Поппинс скачать торрент
    Мэри Поппинс смотреть онлайн
    Cкачать фильм Мэри Поппинс бесплатно
    Мэри Поппинс скачать торрент в хорошем качестве
    Мэри Поппинс смотреть онлайн бесплатно в хорошем качестве


    Вы не можете начинать темы
    Вы не можете отвечать на сообщения
    Вы не можете редактировать свои сообщения
    Вы не можете удалять свои сообщения
    Вы не можете голосовать в опросах
    Вы не можете прикреплять файлы к сообщениям
    Вы можете скачивать файлы