MEGA SALE -50% FORZA HORIZON 4 ULTIMATE+ВСЕ DLC+ОНЛАЙН всего за 599р. 299 руб. (супер цена). Внимание количество ограничено!!!

iTunes

1+1

iTunes

мы

iTunes

1

iTunes

Чернобыль

1 сезон

Ральф против интернета

Лицензия

ПШазам

Лицензия

Игра престолов

Лицензия

30
pack

ВАЖНО

!!Акция!!

Alien_RageХит недели

RePack

Resident Evil 21

ИГРА 18+

pack

RePack

Metro:Exodus

!!Акция!!

Alien_Rage

RePack

fifa19

RePack

Assassins Creed: Odyssey

RePack

NEED FOR SPEED™ PAYBACK

3 сезон

9 сезон

Бесстыжие 9 сезон

Все сериалы

все сериалы на PB.wtf

RePack

FAR CRY 5
Ребята, катастрофически не хватает 7730р. для оплаты серверов за ИЮЛЬ (всвязи с блокировками трафик упал в 3 раза), 1-2р., выручайте.
  

Американская девственница / American Virgin (Клер Килнер) [2009 г., Комедия, BDRip, Профессиональный двухголосый] от R.G. TC-Movies pb.wtf

Американская девственница через торрент pb.wtf

Размер: 1.72 GB | Добавлен: 6 лет 5 мес. назад | Торрент скачан:196 раз
Скачать  

01-03-2013 13:57 Американская девственница Скачать торрент  


Американская девственница / American Virgin
Год выпуска: 2009
Страна: США
Жанр: Комедия
Продолжительность: 01:24:00
Перевод: Профессиональный двухголосый

Режиссер: Клер Килнер

Бюджет: $4 000 000
Премьера в мире: 4 ноября 2009



В ролях: Роб Шнайдер, Дженна Деван, Чейз Райан Джеффри, Брианна Дэвис, Элан Мосс-Бакрак, Эшли Шнайдер, Бо Бёрнэм, Жаклин Эвола, Сара Хабель, Дэвид Фрэнк Флетчер Джейар

Описание: После совершенно отвязной попойки, случившейся впервые в её жизни, новоиспечённая ученица колледжа узнала, что её выкрутасы заснял на видео некий вульгарный режиссёр. Теперь ей и её единомышленникам из группы не признающих секс до брака придётся приложить немало усилий, чтобы добыть компрометирующие материалы и не лишиться стипендии.

Качество: BDRip [Blu-Ray Remux (1080p)]
Формат: AVI
Видео кодек: XviD
Аудио кодек: AC3
Видео: 704x400 (1.76:1), 23.976 fps, XviD build 64 ~2005 kbps avg, 0.30 bit/pixel
Аудио#1: 48 kHz, AC3 Dolby Digital, 3/2 (L,C,R,l,r) + LFE ch, ~448 kbps avg |RUS|
Аудио#2: 48 kHz, AC3 Dolby Digital, 3/2 (L,C,R,l,r) + LFE ch, ~448 kbps |ENG| - внешним файлом


Релиз группы:
Автор рипа:
скриншот  скриншот  скриншот  скриншот  скриншот  скриншот  





Общее:
Полное имя: D:Для сайтаRip'samerekanskaya_devstvennitsa_BDRip_ot_R.G.TC-Moviesamerikanskaya_devstvennitsa_BDRip_ot_R.G.TC-Movies.avi
Формат: AVI
Формат/Информация: Audio Video Interleave
Размер файла: 1,46 Гбайт
Продолжительность: 1 ч. 24 м.
Общий поток: 2463 Кбит/сек
Программа кодирования: VirtualDubMod 1.5.10.3 (build 2550/release)
Библиотека кодирования: VirtualDubMod build 2550/release

Видео:
Идентификатор: 0
Формат: MPEG-4 Visual
Профиль формата: Advanced Simple@L5
Параметр BVOP формата: 2
Параметр QPel формата: Нет
Параметр GMC формата: Без точки перехода
Параметр матрицы формата: Default (H.263)
Идентификатор кодека: XVID
Идентификатор кодека/Подсказка: XviD
Продолжительность: 1 ч. 24 м.
Битрейт: 2006 Кбит/сек
Ширина: 704 пикс.
Высота: 400 пикс.
Соотношение сторон: 16:9
Частота кадров: 23,976 кадр/сек
Цветовое пространство: YUV
Подвыборка цветности: 4:2:0
Битовая глубина: 8 бит
Тип развёртки: Прогрессивная
Метод сжатия: С потерями
Бит/(Пиксели*Кадры): 0.297
Размер потока: 1,19 Гбайт (81%)
Библиотека кодирования: XviD 64

Аудио:
Идентификатор: 1
Формат: AC-3
Формат/Информация: Audio Coding 3
Расширение режима: CM (complete main)
Идентификатор кодека: 2000
Продолжительность: 1 ч. 24 м.
Вид битрейта: Постоянный
Битрейт: 448 Кбит/сек
Каналы: 6 каналов
Расположение каналов: Front: L C R, Side: L R, LFE
Частота: 48,0 КГц
Битовая глубина: 16 бит
Метод сжатия: С потерями
Размер потока: 272 Мбайт (18%)
Выравнивание: Разделение по промежуткам
Продолжительность промежутка: 42 мс. (1,00 видеокадр)
Время предзагрузки промежутка: 500 ms

pb.wtf



Скачать Американская девственница через торрент http://i51.fastpic.ru/big/2013/0301/8e/39f53a7c84cfb8a6b8ba29a295bd798e.png Скачать фильм Американская девственница через торрент бесплантно в хорошем качестве Описание: После совершенно отвязной попойки, случившейся впервые в её жизни, новоиспечённая ученица колледжа узнала, что её выкрутасы ... 10 10 2
Info! Золотая раздача, скачанное не засчитывается.
Торрент: Зарегистрирован [2013-03-01 14:10] · скачан: 196 раз
Статус: √ проверено
Размер: 1.72 GB
Как cкачать? Как скачать Американская девственница через торрент | qTorrent


>> Регистрируемся здесь <<






Отзывы и комментарии о схеме читаем и пишем здесь: ---> Отзывы и комментарии о схеме

Новые благодарочки в телеграм довольных пользователей:
скриншот   скриншот   скриншот   скриншот   скриншот
    Дорогой пользователь! Огромная просьба, поблагодарите релизера, оцените раздачу и оставьте свои комментарий, если Вы скачали Американская девственница через торрент бесплатно! Внесите свою лепту в развитие PiratBit!
    Комментировать посты могут только пользователи прошедшие не сложную регистрацию
    Показать сообщения:    

    Американская девственница через торрент
    Скачать бесплатно Американская девственница
    Американская девственница скачать торрент
    Американская девственница смотреть онлайн
    Cкачать фильм Американская девственница бесплатно
    Американская девственница скачать торрент в хорошем качестве
    Американская девственница смотреть онлайн бесплатно в хорошем качестве


    Вы не можете начинать темы
    Вы не можете отвечать на сообщения
    Вы не можете редактировать свои сообщения
    Вы не можете удалять свои сообщения
    Вы не можете голосовать в опросах
    Вы не можете прикреплять файлы к сообщениям
    Вы можете скачивать файлы