2 сезон

iTunes

MVO

1

2 сезон

iTunes

iTunes

1 сезон

RePack

30

Ultimate

ВАЖНО

ИГРА 18+

pack

RePack

MK11
pack

Легкие деньги

RePack

jed

RePack

fifa19

RePack

RDR2

RePack

NEED FOR SPEED™ PAYBACK

4 сезон

9 сезон

Бесстыжие 9 сезон

Все сериалы

все сериалы на PB.wtf

RePack

FAR CRY 5

Anonymous, добрый день, мы не успеваем собрать деньги на оплату серверов за декабрь и январь, помогите нам пожалуйста в это трудное время. В качестве благодарности мы отключим Вам всю рекламу на сайте (укажите свой ник в строку Ваше имя)!

×
  
Magnet ссылка

Диномама 2D / Dino Time (Юн-сок Чхве, Джон Кафка / Yoon-suk Choi, John Kafka) [2012, мультфильм, комедия, приключения, семейный, DVD9] R5 pb.wtf

Диномама 2D через торрент pb.wtf

Размер: 5.91 GB | Добавлен: 7 лет 10 мес. назад | Торрент скачан:85 раз
Скачать  

01-03-2013 18:48 Диномама 2D Скачать торрент  


Диномама 2D / Dino Time
«В Юрский период на машине времени»
Страна: США, Корея Южная
Студия: CJ Entertainment, Myriad Pictures Inc., Toiion
Жанр: мультфильм, комедия, приключения, семейный
Год выпуска: 2012
Мировая премьера: 30 ноября 2012
Российская премьера: 31 января 2013, 3D
Дата выхода DVD: 28 февраля 2013
Дата выхода Blu-Ray: 28 февраля 2013
Продолжительность: 01:21:55
Перевод: Профессиональный (дублированный) [Лицензия]
Cубтитры: нет
Оригинальная аудиодорожка: нет
Режиссер: Юн-сок Чхве, Джон Кафка / Yoon-suk Choi, John Kafka
Роли озвучивали: Джейн Линч, Роб Шнайдер, Памела Адлон, Уильям Болдуин, Тара Стронг, Мелани Гриффит, Стивен Болдуин, Юрий Ловенталь, Джессика Ди Чикко, Мелани Абрамофф
Описание: Эрни, его сестра Джулия и лучший друг Макс — неразлучная троица. Однажды, друзья без спроса залезли в странное устройство, которое сконструировал папа Макса, и случайно нажали кнопку запуска. Устройство оказалось машиной времени, и ребята очутились в Юрском периоде, прямо в гнезде Тираннозавра. Но вот радость: самка гигантского ящера приняла ребят за своих детенышей. Но не все, конечно, так безоблачно в мире хищников. Кое-кто мечтает полакомиться непрошеными гостями! Друзьям нужно немедленно уносить ноги и подумать о возвращении. Но как это сделать, если важная деталь машины исчезла?
Бонусы: нет

Релиз группы:
Качество: DVD9 R5
Формат: DVD-Video
Видео кодек: MPEG2
Аудио кодек: AC3
Видео: PAL 16:9 (720x576(0.900)) MPEG Video, 25,000 кадр/сек, 9000 Кбит/сек
Аудио: Russian (Dolby AC3, 6 ch) 448 Кбит/сек, 48,0 КГц



Title: Dinomama.2012.DVD9
Size: 5.91 Gb ( 6 197 778,00 KBytes ) - DVD-9
Enabled regions: 1, 2, 3, 4, 5, 6, 7, 8

VTS_01 :
Play Length: 01:21:55
Video: PAL 16:9 (720x576) VBR, Auto Letterboxed
Audio:
Russian (Dolby AC3, 6 ch)

VTS_02 :
Play Length: 00:00:24+00:00:10
Video: PAL 16:9 (720x576) VBR, Auto Letterboxed
Audio:
Russian (Dolby AC3, 2 ch)

* Menus Information *

VIDEO_TS Menu
Video:
PAL 16:9 (720x576) VBR
Auto Letterboxed
Russian Language Unit :
Title Menu

VTS_01 Menu
Video:
PAL 16:9 (720x576) VBR
Auto Letterboxed
Audio:
Not specified (Dolby AC3, 2 ch)
Russian Language Unit :
Root Menu

VTS_02 Menu
Video:
NTSC 4:3 (720x480) VBR
Auto Pan&Scan, Auto Letterboxed
Russian Language Unit :
Root Menu
Общее
Полное имя : J:Новинки 2013Dinomama.2012.DVD9VIDEO_TSVTS_01_1.VOB
Формат : MPEG-PS
Размер файла : 1024 Мбайт
Продолжительность : 14 м.
Общий поток : 9981 Кбит/сек

Видео
Идентификатор : 224 (0xE0)
Формат : MPEG Video
Версия формата : Version 2
Профиль формата : Main@Main
Параметр BVOP формата : Да
Параметр матрицы формата : Выборочная
Параметр GOP формата : Variable
Продолжительность : 14 м.
Битрейт : 9335 Кбит/сек
Максимальный битрейт : 9000 Кбит/сек
Ширина : 720 пикселей
Высота : 576 пикселей
Соотношение сторон : 16:9
Частота кадров : 25,000 кадров/сек
Стандарт вещания : PAL
Цветовое пространство : YUV
Субдискретизация насыщенности : 4:2:0
Битовая глубина : 8 бит
Тип развёртки : Чересстрочная
Порядок развёртки : Верхнее поле первое
Метод сжатия : С потерями
Бит/(Пиксели*Кадры) : 0.900
Размер потока : 958 Мбайт (94%)

Аудио
Идентификатор : 189 (0xBD)-128 (0x80)
Формат : AC-3
Формат/Информация : Audio Coding 3
Расширение режима : CM (complete main)
Параметр Endianness формата : Big
Режим смешивания : DVD-Video
Продолжительность : 14 м.
Вид битрейта : Постоянный
Битрейт : 448 Кбит/сек
Каналы : 6 каналов
Расположение каналов : Front: L C R, Side: L R, LFE
Частота : 48,0 КГц
Битовая глубина : 16 бит
Метод сжатия : С потерями
Размер потока : 45,9 Мбайт (4%)










pb.wtf



Скачать Диномама 2D через торрент http://i54.fastpic.ru/big/2013/0228/d9/7aacfa99cadb1c25e344d060ea5ddad9.jpg Скачать фильм Диномама 2D через торрент бесплантно в хорошем качестве Описание: Эрни, его сестра Джулия и лучший друг Макс — неразлучная троица. Однажды, друзья без спроса залезли в странное устройство, ... 10 10 1
Info! Золотая раздача, скачанное не засчитывается.
Торрент: Зарегистрирован [2013-03-01 18:48] · скачан: 85 раз
Статус: √ проверено
Размер: 5.91 GB
Как cкачать? Как скачать Диномама 2D через торрент | UTorrent

28-11-2019 20:33  

Отключить всю рекламу на сайте

    Дорогой пользователь! Огромная просьба, поблагодарите релизера, оцените раздачу и оставьте свои комментарий, если Вы скачали Диномама 2D через торрент бесплатно! Внесите свою лепту в развитие PiratBit!
    Комментировать посты могут только пользователи прошедшие не сложную регистрацию
    Показать сообщения:    

    Диномама 2D через торрент
    Скачать бесплатно Диномама 2D
    Диномама 2D скачать торрент
    Диномама 2D смотреть онлайн
    Cкачать фильм Диномама 2D бесплатно
    Диномама 2D скачать торрент в хорошем качестве
    Диномама 2D смотреть онлайн бесплатно в хорошем качестве


    Вы не можете начинать темы
    Вы не можете отвечать на сообщения
    Вы не можете редактировать свои сообщения
    Вы не можете удалять свои сообщения
    Вы не можете голосовать в опросах
    Вы не можете прикреплять файлы к сообщениям
    Вы можете скачивать файлы