Мега распродажа FORZA HORIZON 4 ULTIMATE+ВСЕ DLC+ОНЛАЙН всего за 499р. 349 руб. (супер цена). Внимание количество ограничено!!!

Лицензия

30

iTunes

мы

iTunes

1

1 сезон

Чернобыль

1 сезон

Ральф против интернета

MVO

Покемон. Детектив Пикачу

8 сезон

Игра престолов

iTunes

1+1

ИГРА 18+

pack

ВАЖНО

!!Акция!!

Alien_RageХит недели

RePack

Resident Evil 21
pack

RePack

Metro:Exodus

!!Акция!!

Alien_Rage

RePack

fifa19

RePack

Assassins Creed: Odyssey

RePack

NEED FOR SPEED™ PAYBACK

3 сезон

9 сезон

Бесстыжие 9 сезон

Все сериалы

все сериалы на PB.wtf

RePack

FAR CRY 5
Ребята, катастрофически не хватает 2730р. для оплаты серверов за МАЙ (всвязи с блокировками трафик упал в 3 раза), 1-2р., выручайте.
  

Мальчики возвращаются / The Boys Are Back (Скотт Хикс) [2009 г., драма, HDRip, MVO, лицензия (Rus) + MVO (Ukr) + Оригинал] pb.wtf

Мальчики возвращаются через торрент pb.wtf

Размер: 2.06 GB | Добавлен: 6 лет 3 мес. назад | Торрент скачан:44 раза
Скачать  

02-03-2013 22:58 Мальчики возвращаются Скачать торрент  

Мальчики возвращаются / The Boys Are Back
«Взросление, может быть приключением целой жизни»

Год выпуска: 2009
Страна: Австралия, Великобритания
Жанр: драма
Продолжительность: 01:43:55
Перевод :Профессиональный (многоголосый, закадровый) лицензия + Профессиональный (многоголосый, закадровый) - (Украинский - К1) + Оригинал (Английский)

Режиссер: Скотт Хикс
Продюссер: Грег Бренмен, Тимоти Уайт, Джессика Бейлер
Сценарий: Саймон Карр, Аллан Кабит
Премьера в мире: 15 сентября 2009

В ролях: Клайв Оуэн, Лора Фрейзер, Эмма Бут, Джордж Маккэй, Эмма Ланг, Джулия Блейк, Стивен Робертсон, Наташа Литтл, Эрик Томсон, Крис Хейвуд, Адам Морган, Томми Бастоу

Описание: Эта история произошла в Южной Австралии. После смерти жены спортивный репортер Джо Варр решает взять на себя полную ответственность за воспитание их шестилетнего сына, вопреки намерениям тещи. В то же время из Англии приезжает его старший сын от первого брака. Теперь Джо придется заново узнавать своих детей и учиться быть отцом, а мальчишкам предстоит принимать важные решения в их жизни, чтобы быть вместе.

Качество: HDRip
Формат: AVI
Видео кодек: XviD
Аудио кодек: AC3
Видео: 720х400, 24,000 fps, 1719 kbps, 0.249 bit/pixel
Аудио#1: 48 kHz, AC3 5.1, 448.00 kbps / Профессиональный (многоголосый, закадровый) лицензия
Аудио#2: 48 kHz, AC3 2.0, 192.00 kbps / Профессиональный (многоголосый, закадровый) - (Украинский - К1)
Аудио#3: 48 kHz, AC3 5.1, 448.00 kbps / Оригинал (Английский)
&
Общее
Полное имя : E:Фильмы МThe Boys Are Back.2009.HDrip.Rus.Ukr.EngThe Boys Are Back.2009.HDrip.Rus.Ukr.Eng.avi
Формат : AVI
Формат/Информация : Audio Video Interleave
Профиль формата : OpenDML
Размер файла : 2,06 Гбайт
Продолжительность : 1 ч. 43 м.
Общий поток : 2832 Кбит/сек
Программа кодирования : VirtualDubModRus 1.5.10.2 (build 2542/release)
Библиотека кодирования : VirtualDubMod build 2542/release

Видео
Идентификатор : 0
Формат : MPEG-4 Visual
Профиль формата : Advanced Simple@L5
Параметр BVOP формата : 1
Параметр QPel формата : Нет
Параметр GMC формата : Без точки перехода
Параметр матрицы формата : Выборочная
Режим смешивания : Сжатый битовый поток
Идентификатор кодека : XVID
Идентификатор кодека/Подсказка : XviD
Продолжительность : 1 ч. 43 м.
Битрейт : 1719 Кбит/сек
Ширина : 720 пикселей
Высота : 400 пикселей
Соотношение сторон : 16:9
Частота кадров : 24,000 кадра/сек
Цветовое пространство : YUV
Субдискретизация насыщенности : 4:2:0
Битовая глубина : 8 бит
Тип развёртки : Прогрессивная
Метод сжатия : С потерями
Бит/(Пиксели*Кадры) : 0.249
Размер потока : 1,25 Гбайт (61%)
Библиотека кодирования : XviD 65

Аудио #1
Идентификатор : 1
Формат : AC-3
Формат/Информация : Audio Coding 3
Расширение режима : CM (complete main)
Параметр Endianness формата : Big
Идентификатор кодека : 2000
Продолжительность : 1 ч. 43 м.
Вид битрейта : Постоянный
Битрейт : 448 Кбит/сек
Каналы : 6 каналов
Расположение каналов : Front: L C R, Side: L R, LFE
Частота : 48,0 КГц
Битовая глубина : 16 бит
Метод сжатия : С потерями
Задержка видео : 5 с. 800 мс.
Размер потока : 333 Мбайт (16%)
Выравнивание : Разделение по промежуткам
Продолжительность промежутка : 42 мс. (1,00 видеокадр)
Время предзагрузки промежутка : 500 мс.

Аудио #2
Идентификатор : 2
Формат : AC-3
Формат/Информация : Audio Coding 3
Расширение режима : CM (complete main)
Параметр Endianness формата : Big
Идентификатор кодека : 2000
Продолжительность : 1 ч. 43 м.
Вид битрейта : Постоянный
Битрейт : 192 Кбит/сек
Каналы : 2 канала
Расположение каналов : Front: L R
Частота : 44,1 КГц
Битовая глубина : 16 бит
Метод сжатия : С потерями
Размер потока : 143 Мбайт (7%)
Выравнивание : Разделение по промежуткам
Продолжительность промежутка : 42 мс. (1,00 видеокадр)
Время предзагрузки промежутка : 500 мс.

Аудио #3
Идентификатор : 3
Формат : AC-3
Формат/Информация : Audio Coding 3
Расширение режима : CM (complete main)
Параметр Endianness формата : Big
Идентификатор кодека : 2000
Продолжительность : 1 ч. 43 м.
Вид битрейта : Постоянный
Битрейт : 448 Кбит/сек
Каналы : 6 каналов
Расположение каналов : Front: L C R, Side: L R, LFE
Частота : 48,0 КГц
Битовая глубина : 16 бит
Метод сжатия : С потерями
Размер потока : 333 Мбайт (16%)
Выравнивание : Разделение по промежуткам
Продолжительность промежутка : 42 мс. (1,00 видеокадр)
Время предзагрузки промежутка : 500 мс.

pb.wtf



Скачать Мальчики возвращаются через торрент http://i53.fastpic.ru/big/2013/0303/57/c8c95f8f38f727a02ac0d09da7307b57.png Скачать фильм Мальчики возвращаются через торрент бесплантно в хорошем качестве Описание: Эта история произошла в Южной Австралии. После смерти жены спортивный репортер Джо Варр решает взять на себя полную ... 5 10 1
Info! Золотая раздача, скачанное не засчитывается.
Торрент: Зарегистрирован [2013-03-02 22:58] · скачан: 44 раз
Статус: √ проверено
Размер: 2.06 GB
Как cкачать? Как скачать Мальчики возвращаются через торрент | qTorrent


>> Регистрируемся здесь <<






Отзывы и комментарии о схеме читаем и пишем здесь: ---> Отзывы и комментарии о схеме

Новые благодарочки в телеграм довольных пользователей:
скриншот   скриншот   скриншот   скриншот   скриншот
    Дорогой пользователь! Огромная просьба, поблагодарите релизера, оцените раздачу и оставьте свои комментарий, если Вы скачали Мальчики возвращаются через торрент бесплатно! Внесите свою лепту в развитие PiratBit!
    Комментировать посты могут только пользователи прошедшие не сложную регистрацию
    Показать сообщения:    

    Мальчики возвращаются через торрент
    Скачать бесплатно Мальчики возвращаются
    Мальчики возвращаются скачать торрент
    Мальчики возвращаются смотреть онлайн
    Cкачать фильм Мальчики возвращаются бесплатно
    Мальчики возвращаются скачать торрент в хорошем качестве
    Мальчики возвращаются смотреть онлайн бесплатно в хорошем качестве


    Вы не можете начинать темы
    Вы не можете отвечать на сообщения
    Вы не можете редактировать свои сообщения
    Вы не можете удалять свои сообщения
    Вы не можете голосовать в опросах
    Вы не можете прикреплять файлы к сообщениям
    Вы можете скачивать файлы