Мега распродажа FORZA HORIZON 4 ULTIMATE+ВСЕ DLC+ОНЛАЙН всего за 499р. 349 руб. (супер цена). Внимание количество ограничено!!!

Лицензия

30

iTunes

мы

iTunes

1

1 сезон

Чернобыль

1 сезон

Ральф против интернета

MVO

Покемон. Детектив Пикачу

8 сезон

Игра престолов

iTunes

1+1

ИГРА 18+

pack

ВАЖНО

!!Акция!!

Alien_RageХит недели

RePack

Resident Evil 21
pack

RePack

Metro:Exodus

!!Акция!!

Alien_Rage

RePack

fifa19

RePack

Assassins Creed: Odyssey

RePack

NEED FOR SPEED™ PAYBACK

3 сезон

9 сезон

Бесстыжие 9 сезон

Все сериалы

все сериалы на PB.wtf

RePack

FAR CRY 5
Ребята, катастрофически не хватает 2730р. для оплаты серверов за МАЙ (всвязи с блокировками трафик упал в 3 раза), 1-2р., выручайте.
  

Подарок / Echelon Conspiracy (Грег Маркс) [2009 г., боевик, триллер, криминал, детектив, DVDRip, DUB, лицензия] pb.wtf

Подарок через торрент pb.wtf

Размер: 2.05 GB | Добавлен: 6 лет 3 мес. назад | Торрент скачан:246 раз
Скачать  

03-03-2013 07:06 Подарок Скачать торрент  

Подарок / Echelon Conspiracy

Год выпуска: 2009
Страна: США
Жанр: боевик, триллер, криминал, детектив
Продолжительность: 01:40:56
Перевод: Дубляж, Лицензия
Субтитры: Отсутствуют

Режиссер: Грег Маркс
Продюссер: Чарльз В. Бендер, Стивен Бендер, Александр Лейвиман
Сценарий: Кевин Элдерс, Майкл Нитсберг

Мировой рейтинг IMDB 5.70 (12 215)


В ролях: Шэйн Уэст, Эдвард Бёрнс, Винг Реймз, Гоша Куценко, Мартин Шин, Стивен Элдер, Сандра Де Суза, Грегори Дональдсон, Андреа Энрайт, Тамара Фельдман, Александр Гаврилин, Василий Дахненко, Георгий Мартиросьян, Олег Форостенко, Марианна Шульц

Описание: Что будет, если Вы получите подарок, который выполнит все Ваши желания. Подарок, от которого Вы не сможете отказаться, но за который Вам придется поплатиться. Обычному парню Максу Питерсону судьба преподносит именно такой подарок. Его жизнь круто меняется .... Но, как долго он сможет наслаждаться привалившим счастьем и, какой ценой оно ему обернется?

Качество: DVDRip
Формат: AVI
Видео кодек: XviD
Аудио кодек: AC3
Видео: 720x304 (2.37:1), 25 fps, XviD build 50 ~2447 kbps avg, 0.45 bit/pixel
Аудио#1: 48 kHz, AC3 Dolby Digital, 3/2 (L,C,R,l,r) + LFE ch, ~448 kbps



Общее
Полное имя : F:ЗакачкиPodarok.2009.DVDRip.avi
Формат : AVI
Формат/Информация : Audio Video Interleave
Профиль формата : OpenDML
Размер файла : 2,05 Гбайт
Продолжительность : 1 ч. 40 м.
Общий поток : 2902 Кбит/сек
Программа кодирования : VirtualDubMod 1.5.10.3 | www.virtualdub-fr.org || (build 2550/release)
Библиотека кодирования : VirtualDubMod build 2550/release

Видео
Идентификатор : 0
Формат : MPEG-4 Visual
Профиль формата : Advanced Simple@L5
Параметр BVOP формата : 2
Параметр QPel формата : Нет
Параметр GMC формата : Без точки перехода
Параметр матрицы формата : Default (H.263)
Идентификатор кодека : XVID
Идентификатор кодека/Подсказка : XviD
Продолжительность : 1 ч. 40 м.
Битрейт : 2441 Кбит/сек
Ширина : 720 пикселей
Высота : 304 пикселя
Соотношение сторон : 2,35:1
Частота кадров : 25,000 кадров/сек
Цветовое пространство : YUV
Субдискретизация насыщенности : 4:2:0
Битовая глубина : 8 бит
Тип развёртки : Прогрессивная
Метод сжатия : С потерями
Бит/(Пиксели*Кадры) : 0.446
Размер потока : 1,72 Гбайт (84%)
Библиотека кодирования : XviD 1.2.1 (UTC 2008-12-04)

Аудио
Идентификатор : 1
Формат : AC-3
Формат/Информация : Audio Coding 3
Расширение режима : CM (complete main)
Идентификатор кодека : 2000
Продолжительность : 1 ч. 40 м.
Вид битрейта : Постоянный
Битрейт : 448 Кбит/сек
Каналы : 6 каналов
Расположение каналов : Front: L C R, Side: L R, LFE
Частота : 48,0 КГц
Битовая глубина : 16 бит
Метод сжатия : С потерями
Размер потока : 323 Мбайт (15%)
Выравнивание : Разделение по промежуткам
Продолжительность промежутка : 40 мс. (1,00 видеокадр)
Время предзагрузки промежутка : 500 мс.


Подарок скачать торрент


pb.wtf



Скачать Подарок через торрент http://i51.fastpic.ru/big/2013/0303/47/0eb6ac657c31f59efbb8cb995e8b7547.jpg Скачать фильм Подарок через торрент бесплантно в хорошем качестве Описание: Что будет, если Вы получите подарок, который выполнит все Ваши желания. Подарок, от которого Вы не сможете отказаться, но за ... 9.7 10 6
Info! Золотая раздача, скачанное не засчитывается.
Торрент: Зарегистрирован [2013-03-03 07:06] · скачан: 246 раз
Статус: √ проверено
Размер: 2.05 GB
Как cкачать? Как скачать Подарок через торрент | qTorrent

% Раздел Тема Автор DL S | L
Фильмы 2009 [ 2.05 GB ] Подарок / Echelon Conspiracy [2009 HDRip] coc900 Скачать
1 | 0
Фильмы 2009 [ 1.37 GB ] Подарок / Echelon Conspiracy [2009 DVDRip] DEVI Скачать
1 | 0


>> Регистрируемся здесь <<






Отзывы и комментарии о схеме читаем и пишем здесь: ---> Отзывы и комментарии о схеме

Новые благодарочки в телеграм довольных пользователей:
скриншот   скриншот   скриншот   скриншот   скриншот

03-03-2013 10:11 Подарок Скачать торрент  

pb.wtf



    Дорогой пользователь! Огромная просьба, поблагодарите релизера, оцените раздачу и оставьте свои комментарий, если Вы скачали Подарок через торрент бесплатно! Внесите свою лепту в развитие PiratBit!
    Комментировать посты могут только пользователи прошедшие не сложную регистрацию
    Показать сообщения:    

    Подарок через торрент
    Скачать бесплатно Подарок
    Подарок скачать торрент
    Подарок смотреть онлайн
    Cкачать фильм Подарок бесплатно
    Подарок скачать торрент в хорошем качестве
    Подарок смотреть онлайн бесплатно в хорошем качестве


    Вы не можете начинать темы
    Вы не можете отвечать на сообщения
    Вы не можете редактировать свои сообщения
    Вы не можете удалять свои сообщения
    Вы не можете голосовать в опросах
    Вы не можете прикреплять файлы к сообщениям
    Вы можете скачивать файлы