2 сезон

iTunes

1 сезон

1

iTunes

iTunes

iTunes

1 сезон

RePack

30

ИГРА 18+

pack

ВАЖНО

!!Акция!!

Alien_RageХит недели

RePack

MK11
pack

Забери бонус

RePack

jed

!!Акция!!

Alien_Rage

RePack

fifa19

RePack

Assassins Creed: Odyssey

RePack

NEED FOR SPEED™ PAYBACK

4 сезон

9 сезон

Бесстыжие 9 сезон

Все сериалы

все сериалы на PB.wtf

RePack

FAR CRY 5
  

Перевозчик / The Transporter (Луи Летерье, Кори Юэнь) [2002 г., боевик, триллер, криминал, BDRip 1080p, DUB, лицензия] pb.wtf

Перевозчик через торрент pb.wtf

Размер: 8.03 GB | Добавлен: 7 лет 7 мес. назад | Торрент скачан:22 раза
Скачать  

03-03-2013 13:10 Перевозчик Скачать торрент  

Перевозчик / The Transporter
«Правила создаются, чтобы их нарушать.»

Год выпуска: 2002
Страна: США , Франция
Жанр: боевик, триллер, криминал
Продолжительность: 01:32:32
Перевод: Дубляж, Лицензия
Русские субтитры: есть

Режиссер: Луи Летерье, Кори Юэнь
Продюссер: Люк Бессон, Стив Чэсмэн, Дэвид Лаи
Сценарий: Люк Бессон, Роберт Марк Кэмен

Бюджет: $21 000 000

Мировой рейтинг IMDB 6.70 (138 298)


В ролях: Джейсон Стэтхэм, Шу Ци, Мэтт Шульце, Франсуа Берлеан, Рик Янг, Даг Рэнд, Дидье Сен Мелен, Тони Десканвелль, Лорен Деспонд, Маттье Альбертини

Описание: Фрэнк Мартин (Джейсон Стэтэм) - идеальный перевозчик: любое место назначения, любой груз, никаких вопросов. Залог успеха - в неукоснительном соблюдении трех правил: №1 - никогда не менять условий сделки, №2 - никаких имен, №3 - никогда не заглядывать в багаж.

Последний груз, похоже, ничем не отличается от всех прочих. Его поручил переправить американец по прозвищу Уолл-стрит (см. правило второе), но когда Фрэнк по дороге делает остановку, он замечает, что его багаж шевелится. Нарушив правило номер три, Фрэнк заглядывает внутрь и обнаруживает прекрасную женщину с кляпом во рту. Остальные правила, от которых зависят безопасность и жизнь Фрэнка, также скоро нарушаются. В результате перевозчик и его неожиданная попутчица вступают на опасный путь, на котором их ждут страшные тайны, смертельные ловушки и удивительное для Фрэнка открытие - правила, по которым он раньше жил, созданы для того, чтобы их нарушать.


Качество: BDRip 1080p
Формат: MKV
Видео кодек: H.26x
Аудио кодек: AC3/DTS
Видео: 1920x820 (2.35:1), 23.976 fps, 8 500 Kbps (0.225 bit/pixel)
Аудио#1: AC-3, 48.0 KHz, 6 ch, 640 Kbps, CBR (Russian) (дубляж)
Аудио#2: AC-3, 48.0 KHz, 6 ch, 384 Kbps, CBR (Russian) (многоголосый)
Аудио#3: DTS, 48.0 KHz, 6 ch, 755 Kbps, CBR (Russian) (авторский А.Гаврилов)
Аудио#4: DTS, 48.0 KHz, 6 ch, 1 510 Kbps, CBR (Russian) (авторский Е.Рудой)
Субтитры: Russian, English




Общее
Уникальный идентификатор : 227379840702186594649505264281734268242 (0xAB0FC3AF72048FCCA7A4790D043AC552)
Полное имя : E:Перевозчик (2002) 1920x820 BDRip.RusEngSubs.mkv
Формат : Matroska
Версия формата : Version 2
Размер файла : 8,03 Гбайт
Продолжительность : 1 ч. 32 м.
Общий поток : 12,4 Мбит/сек
Название фильма : ripped by -=mallaigne=-
Дата кодирования : UTC 2012-05-24 13:12:44
Программа кодирования : mkvmerge v5.5.0 ('Healer') built on Apr 6 2012 21:43:24
Библиотека кодирования : libebml v1.2.3 + libmatroska v1.3.0

Видео
Идентификатор : 1
Формат : AVC
Формат/Информация : Advanced Video Codec
Профиль формата : High@L4.1
Параметр CABAC формата : Да
Параметр ReFrames формата : 5 кадров
Идентификатор кодека : V_MPEG4/ISO/AVC
Продолжительность : 1 ч. 32 м.
Битрейт : 8500 Кбит/сек
Ширина : 1920 пикселей
Высота : 820 пикселей
Соотношение сторон : 2,35:1
Режим частоты кадров : Постоянный
Частота кадров : 23,976 кадра/сек
Цветовое пространство : YUV
Субдискретизация насыщенности : 4:2:0
Битовая глубина : 8 бит
Тип развёртки : Прогрессивная
Бит/(Пиксели*Кадры) : 0.225
Размер потока : 5,33 Гбайт (66%)
Заголовок : 26% of the original
Библиотека кодирования : x264 core 125 r2200kMod 999b753
Настройки программы : cabac=1 / ref=5 / deblock=1:-3:-3 / analyse=0x3:0x133 / me=umh / subme=11 / psy=1 / fade_compensate=0.00 / psy_rd=1.00:0.00 / mixed_ref=1 / me_range=64 / chroma_me=1 / trellis=2 / 8x8dct=1 / cqm=0 / deadzone=21,11 / fast_pskip=0 / chroma_qp_offset=-2 / threads=12 / lookahead_threads=2 / sliced_threads=0 / nr=0 / decimate=0 / interlaced=0 / bluray_compat=0 / constrained_intra=0 / bframes=10 / b_pyramid=2 / b_adapt=2 / b_bias=0 / direct=3 / weightb=1 / open_gop=0 / weightp=2 / keyint=240 / keyint_min=23 / scenecut=40 / intra_refresh=0 / rc_lookahead=80 / rc=2pass / mbtree=1 / bitrate=8500 / ratetol=1.0 / qcomp=0.70 / qpmin=0 / qpmax=69 / qpstep=4 / cplxblur=20.0 / qblur=0.5 / ip_ratio=1.40 / aq=1:0.80
Язык : English
Default : Да
Forced : Нет

Аудио #1
Идентификатор : 2
Формат : AC-3
Формат/Информация : Audio Coding 3
Расширение режима : CM (complete main)
Параметр Endianness формата : Big
Идентификатор кодека : A_AC3
Продолжительность : 1 ч. 32 м.
Вид битрейта : Постоянный
Битрейт : 640 Кбит/сек
Каналы : 6 каналов
Расположение каналов : Front: L C R, Side: L R, LFE
Частота : 48,0 КГц
Битовая глубина : 16 бит
Метод сжатия : С потерями
Размер потока : 424 Мбайт (5%)
Заголовок : Dub AC3 6ch 640kbps
Язык : Russian
Default : Да
Forced : Нет

Аудио #2
Идентификатор : 3
Формат : AC-3
Формат/Информация : Audio Coding 3
Расширение режима : CM (complete main)
Параметр Endianness формата : Big
Идентификатор кодека : A_AC3
Продолжительность : 1 ч. 32 м.
Вид битрейта : Постоянный
Битрейт : 384 Кбит/сек
Каналы : 6 каналов
Расположение каналов : Front: L C R, Side: L R, LFE
Частота : 48,0 КГц
Битовая глубина : 16 бит
Метод сжатия : С потерями
Размер потока : 254 Мбайт (3%)
Заголовок : MVO AC3 6ch 384kbps
Язык : Russian
Default : Нет
Forced : Нет

Аудио #3
Идентификатор : 4
Формат : DTS
Формат/Информация : Digital Theater Systems
Режим : 16
Параметр Endianness формата : Big
Идентификатор кодека : A_DTS
Продолжительность : 1 ч. 32 м.
Вид битрейта : Постоянный
Битрейт : 755 Кбит/сек
Каналы : 6 каналов
Расположение каналов : Front: L C R, Side: L R, LFE
Частота : 48,0 КГц
Битовая глубина : 24 бит
Метод сжатия : С потерями
Размер потока : 499 Мбайт (6%)
Заголовок : AVO DTS 6ch 755kbps (А.Гаврилов)
Язык : Russian
Default : Нет
Forced : Нет

Аудио #4
Идентификатор : 5
Формат : DTS
Формат/Информация : Digital Theater Systems
Режим : 16
Параметр Endianness формата : Big
Идентификатор кодека : A_DTS
Продолжительность : 1 ч. 32 м.
Вид битрейта : Постоянный
Битрейт : 1510 Кбит/сек
Каналы : 6 каналов
Расположение каналов : Front: L C R, Side: L R, LFE
Частота : 48,0 КГц
Битовая глубина : 24 бит
Метод сжатия : С потерями
Размер потока : 999 Мбайт (12%)
Заголовок : AVO DTS 6ch 1510kbps (Е.Рудой)
Язык : Russian
Default : Нет
Forced : Нет

Аудио #5
Идентификатор : 6
Формат : AC-3
Формат/Информация : Audio Coding 3
Расширение режима : CM (complete main)
Параметр Endianness формата : Big
Идентификатор кодека : A_AC3
Продолжительность : 1 ч. 32 м.
Вид битрейта : Постоянный
Битрейт : 640 Кбит/сек
Каналы : 6 каналов
Расположение каналов : Front: L C R, Side: L R, LFE
Частота : 48,0 КГц
Битовая глубина : 16 бит
Метод сжатия : С потерями
Размер потока : 424 Мбайт (5%)
Заголовок : Original AC3 6ch 640kbps
Язык : English
Default : Нет
Forced : Нет

Текст #1
Идентификатор : 7
Формат : UTF-8
Идентификатор кодека : S_TEXT/UTF8
Идентификатор кодека/Информация : UTF-8 Plain Text
Язык : Russian
Default : Да
Forced : Нет

Текст #2
Идентификатор : 8
Формат : UTF-8
Идентификатор кодека : S_TEXT/UTF8
Идентификатор кодека/Информация : UTF-8 Plain Text
Язык : English
Default : Нет
Forced : Нет

Меню
00:00:00.000 : :00:00:00.000
00:05:07.050 : :00:05:07.050
00:10:48.224 : :00:10:48.224
00:14:54.885 : :00:14:54.885
00:19:06.512 : :00:19:06.512
00:27:31.727 : :00:27:31.727
00:31:36.386 : :00:31:36.386
00:36:48.157 : :00:36:48.157
00:38:42.063 : :00:38:42.063
00:44:26.282 : :00:44:26.282
00:50:06.664 : :00:50:06.664
00:51:16.650 : :00:51:16.650
00:56:25.501 : :00:56:25.501
01:01:39.188 : :01:01:39.188
01:07:19.277 : :01:07:19.277
01:16:41.006 : :01:16:41.006
01:19:40.603 : :01:19:40.603
01:24:02.698 : :01:24:02.698
01:26:44.484 : :01:26:44.484


Перевозчик скачать торрент






pb.wtf



Скачать Перевозчик через торрент http://pic.kartinco.top/images/2/8d5kv57gk4.jpg Скачать фильм Перевозчик через торрент бесплантно в хорошем качестве Описание: Фрэнк Мартин (Джейсон Стэтэм) - идеальный перевозчик: любое место назначения, любой груз, никаких вопросов. Залог успеха - в ... 10 10 1
Info! Золотая раздача, скачанное не засчитывается.
Торрент: Зарегистрирован [2013-03-03 13:10] · скачан: 22 раз
Статус: √ проверено
Размер: 8.03 GB
Как cкачать? Как скачать Перевозчик через торрент | qTorrent

% Раздел Тема Автор DL S | L
Фильмы [HD 720p, 1080p] (Хороший звук DUB, MVO) [ 4.71 GB ] Перевозчик / The Transporter [2002 BDRip-HEVC 1080p ] [UnCut Version] DUB [] bober100 Скачать
1 | 0
Фильмы 2015 [DVDrip, WEB-DLRip, HDrip] [ 2.18 GB ] Перевозчик: Наследие / The Transporter Refueled [2015 BDRip-AVC] [RUS Transfer] DUB potroks Скачать
1 | 0
Фильмы (Blu-ray, BD-Remux, HDDVD) [ 27.56 GB ] Перевозчик / The Transporter [2002 BD Remux ] Бумер Скачать
1 | 0
Фильмы [HD 720p, 1080p] (Хороший звук DUB, MVO) [ 7.75 GB ] Перевозчик: Наследие / The Transporter Refueled [2015 BDRip 1080p - [ / BD CEE] Ворон Скачать
1 | 0
Фильмы (DVD фильмы) [ 5.29 GB ] Перевозчик: Наследие / The Transporter Refueled [2015 DVD9] R5 voovaz Скачать
1 | 0
Фильмы [HD 720p, 1080p] (Хороший звук DUB, MVO) [ 13.45 GB ] Перевозчик: Наследие / The Transporter Refueled [2015 BDRip 1080p] DUB Ворон Скачать
1 | 0
Фильмы 2015 [DVDrip, WEB-DLRip, HDrip] [ 1.46 GB ] Перевозчик: Наследие / The Transporter Refueled [2015 BDRip [] Twi7ter Скачать
1 | 0

28-11-2019 20:33  

Отключить всю рекламу на сайте

    Дорогой пользователь! Огромная просьба, поблагодарите релизера, оцените раздачу и оставьте свои комментарий, если Вы скачали Перевозчик через торрент бесплатно! Внесите свою лепту в развитие PiratBit!
    Комментировать посты могут только пользователи прошедшие не сложную регистрацию
    Показать сообщения:    

    Перевозчик через торрент
    Скачать бесплатно Перевозчик
    Перевозчик скачать торрент
    Перевозчик смотреть онлайн
    Cкачать фильм Перевозчик бесплатно
    Перевозчик скачать торрент в хорошем качестве
    Перевозчик смотреть онлайн бесплатно в хорошем качестве


    Вы не можете начинать темы
    Вы не можете отвечать на сообщения
    Вы не можете редактировать свои сообщения
    Вы не можете удалять свои сообщения
    Вы не можете голосовать в опросах
    Вы не можете прикреплять файлы к сообщениям
    Вы можете скачивать файлы