Лицензия

MVO

1

1 сезон

Лицензия

Лицензия

13

MVO

1 сезон

Deluxe Edition

pack

Рекомендуем

30

Repack

ВАЖНО

ВАЖНО

Ghostwire

RePack

jed

RePack

fifa19

RePack

RDR2

RePack

NEED FOR SPEED™ PAYBACK

RePack

Кинопоиск HD

 Острые козырьки 6 сезон

6 сезон

FAR CRY 6

RePack

Лицензия

MVO

1

1 сезон

1 сезон

Лицензия

  

Ледниковый период 4: Континентальный дрейф в 3D / Ice Age: Continental Drift in 3D (Стив Мартино, Майк Тёрмайер) [2012 г., мультфильм, комедия, приключения, семейный, BDRip 1080p, DUB, лицензия] Anaglyph (Дюбуа)

Ледниковый период 4: Континентальный дрейф в 3D через торрент pb.wtf

Размер: 6.18 GB | Добавлен: 9 лет 6 мес. назад | Торрент скачан:215 раз
Смотреть онлайн Ледниковый период 4: Континентальный дрейф в 3D | Скачать   

03-03-2013 21:49 Ледниковый период 4: Континентальный дрейф в 3D Скачать торрент  

Ледниковый период 4: Континентальный дрейф в 3D / Ice Age: Continental Drift in 3D

Год выпуска: 2012
Страна: США
Жанр: мультфильм, комедия, приключения, семейный
Продолжительность: 01:27:45
Перевод: Дубляж, Лицензия

Режиссер: Стив Мартино, Майк Тёрмайер
Продюссер: Джон С. Донкин, Лори Форте, Карлос Салдана
Сценарий: Майкл Берг, Джейсон Фучс, Лори Форте

Бюджет: $95 000 000
Премьера в мире: 26 июня 2012

Мировой рейтинг IMDB 6.60 (62 438)



Озвучивали: Рэй Романо, Джон Легуизамо, Куин Латифа, Дэнис Лири, Джош Пек, Питер Динклэйдж, Кеке Палмер, Дженнифер Лопез, Ник Фрост, Азиз Ансари,
Дублировали: Степан Старчиков, Антон Комолов, Ольга Шелест, Александр Груздев, Иван Охлобыстин

Описание: После приключений под землей прошло семь лет. Случился дрейф континентов. Главные герои мультфильма, отделённые от стада, вынуждены использовать айсберг в качестве плота. Они пересекают океан и попадают в неизвестные им ранее земли с экзотическими животными и пиратами, враждебно настроенными к ним. Скрэту удаётся получить свой жёлудь, но он перемещается в новые для него земли.

Доп. информация: Формат 3D: Anaglyph (Дюбуа)


Качество: BDRip 1080p
Формат: MKV
Видео кодек: H.26x
Аудио кодек: AC3
Видео: 1920 х 800 / 23,976 fps, (2,40:1) / 8781 Kbps, (0.238 bit/pixel)
Аудио#1: Русский / AC3 / 48 KHz / 5.1 ch / 448 Kbps
Аудио#2: Украинский / AC3 / 48 KHz / 5.1 ch / 448 Kbps
Аудио#3: Английский / AC3 / 48 KHz / 5.1 ch / 448 Kbps
Субтитры: English, Russian, Ukrainian



скриншот   скриншот   скриншот   скриншот   скриншот   скриншот   скриншот  
Общее
Уникальный идентификатор : 238606238785130529934460890779607817087 (0xB381E3D84F8A42FE8615F0D1483EDB7F)
Полное имя : D:DVDLednikovyj.Period.4.Kontinentalnyj.Drejf.3D.mkv
Формат : Matroska
Версия формата : Version 2
Размер файла : 6,18 Гбайт
Продолжительность : 1 ч. 27 м.
Общий поток : 10,1 Мбит/сек
Название фильма : Lednikovyj.Period.4.Kontinentalnyj.Drejf.3D.(Anaglyph_Red-Cyan_Dubois)
Дата кодирования : UTC 2013-03-03 10:11:53
Программа кодирования : mkvmerge v4.0.0 ('The Stars were mine') сборка от Jun 6 2010 16:18:42
Библиотека кодирования : libebml v1.0.0 + libmatroska v1.0.0

Видео
Идентификатор : 1
Формат : AVC
Формат/Информация : Advanced Video Codec
Профиль формата : [email protected]
Параметр CABAC формата : Да
Параметр ReFrames формата : 4 кадра
Идентификатор кодека : V_MPEG4/ISO/AVC
Продолжительность : 1 ч. 27 м.
Битрейт : 8781 Кбит/сек
Ширина : 1920 пикселей
Высота : 800 пикселей
Соотношение сторон : 2,40:1
Режим частоты кадров : Постоянный
Частота кадров : 23,976 кадра/сек
Цветовое пространство : YUV
Субдискретизация насыщенности : 4:2:0
Битовая глубина : 8 бит
Тип развёртки : Прогрессивная
Бит/(Пиксели*Кадры) : 0.238
Размер потока : 5,24 Гбайт (85%)
Заголовок : Lednikovyj.Period.4.Kontinentalnyj.Drejf.3D.2012.BDRip.mkv
Библиотека кодирования : x264 core 120
Настройки программы : cabac=1 / ref=4 / deblock=1:0:0 / analyse=0x3:0x113 / me=hex / subme=2 / psy=1 / psy_rd=1.00:0.00 / mixed_ref=1 / me_range=16 / chroma_me=1 / trellis=0 / 8x8dct=1 / cqm=0 / deadzone=21,11 / fast_pskip=1 / chroma_qp_offset=0 / threads=3 / sliced_threads=0 / nr=0 / decimate=1 / interlaced=0 / bluray_compat=0 / constrained_intra=0 / bframes=3 / b_pyramid=2 / b_adapt=1 / b_bias=0 / direct=1 / weightb=1 / open_gop=0 / weightp=2 / keyint=240 / keyint_min=24 / scenecut=40 / intra_refresh=0 / rc_lookahead=10 / rc=abr / mbtree=1 / bitrate=8781 / ratetol=1.0 / qcomp=0.60 / qpmin=3 / qpmax=69 / qpstep=4 / ip_ratio=1.40 / aq=1:1.00
Язык : English
Default : Нет
Forced : Нет
Основные цвета : BT.709
Характеристики трансфера : BT.709
Коэффициенты матрицы : BT.709

Аудио #1
Идентификатор : 2
Формат : AC-3
Формат/Информация : Audio Coding 3
Расширение режима : CM (complete main)
Параметр Endianness формата : Big
Идентификатор кодека : A_AC3
Продолжительность : 1 ч. 27 м.
Вид битрейта : Постоянный
Битрейт : 448 Кбит/сек
Каналы : 6 каналов
Расположение каналов : Front: L C R, Side: L R, LFE
Частота : 48,0 КГц
Битовая глубина : 16 бит
Метод сжатия : С потерями
Задержка видео : 2 с. 24 мс.
Размер потока : 281 Мбайт (4%)
Язык : Russian
Default : Нет
Forced : Да

Аудио #2
Идентификатор : 3
Формат : AC-3
Формат/Информация : Audio Coding 3
Расширение режима : CM (complete main)
Параметр Endianness формата : Big
Идентификатор кодека : A_AC3
Продолжительность : 1 ч. 27 м.
Вид битрейта : Постоянный
Битрейт : 448 Кбит/сек
Каналы : 6 каналов
Расположение каналов : Front: L C R, Side: L R, LFE
Частота : 48,0 КГц
Битовая глубина : 16 бит
Метод сжатия : С потерями
Задержка видео : 8 мс.
Размер потока : 281 Мбайт (4%)
Язык : Ukrainian
Default : Нет
Forced : Нет

Аудио #3
Идентификатор : 4
Формат : AC-3
Формат/Информация : Audio Coding 3
Расширение режима : CM (complete main)
Параметр Endianness формата : Big
Идентификатор кодека : A_AC3
Продолжительность : 1 ч. 27 м.
Вид битрейта : Постоянный
Битрейт : 448 Кбит/сек
Каналы : 6 каналов
Расположение каналов : Front: L C R, Side: L R, LFE
Частота : 48,0 КГц
Битовая глубина : 16 бит
Метод сжатия : С потерями
Задержка видео : 2 с. 24 мс.
Размер потока : 281 Мбайт (4%)
Язык : English
Default : Нет
Forced : Нет

Текст #1
Идентификатор : 5
Формат : UTF-8
Идентификатор кодека : S_TEXT/UTF8
Идентификатор кодека/Информация : UTF-8 Plain Text
Язык : English
Default : Нет
Forced : Нет

Текст #2
Идентификатор : 6
Формат : UTF-8
Идентификатор кодека : S_TEXT/UTF8
Идентификатор кодека/Информация : UTF-8 Plain Text
Язык : Russian
Default : Нет
Forced : Нет

Текст #3
Идентификатор : 7
Формат : UTF-8
Идентификатор кодека : S_TEXT/UTF8
Идентификатор кодека/Информация : UTF-8 Plain Text
Язык : Ukrainian
Default : Нет
Forced : Нет


Ледниковый период 4: Континентальный дрейф скачать торрент





Скачать Ледниковый период 4: Континентальный дрейф в 3D через торрент http://i39.fastpic.ru/big/2012/1006/cd/30d6c38efe9cb53f395367296e353ccd.jpg Скачать, смотреть онлайн Ледниковый период 4: Континентальный дрейф в 3D бесплантно в хорошем качестве Описание: После приключений под землей прошло семь лет. Случился дрейф континентов. Главные герои мультфильма, отделённые от стада, ... 7.9 10 7
Info! Золотая раздача, скачанное не засчитывается.
Торрент: Зарегистрирован [2013-03-03 21:49] · скачан: 215 раз
Статус: √ проверено
Размер: 6.18 GB
Как cкачать? Как скачать Ледниковый период 4: Континентальный дрейф в 3D через торрент | UTorrent

28-11-2019 20:33  

Отключить вcю реклaмy на сайте

    Дорогой пользователь! Огромная просьба, поблагодарите релизера, оцените раздачу и оставьте свои комментарий, если Вы скачали Ледниковый период 4: Континентальный дрейф в 3D через торрент бесплатно!!
    Комментировать посты могут только пользователи прошедшие не сложную регистрацию
    Показать сообщения:    


    Ледниковый период 4: Континентальный дрейф в 3D через торрент
    Скачать бесплатно Ледниковый период 4: Континентальный дрейф в 3D
    Ледниковый период 4: Континентальный дрейф в 3D скачать торрент
    Ледниковый период 4: Континентальный дрейф в 3D смотреть онлайн
    Cкачать фильм Ледниковый период 4: Континентальный дрейф в 3D бесплатно
    Ледниковый период 4: Континентальный дрейф в 3D скачать торрент в хорошем качестве
    Ледниковый период 4: Континентальный дрейф в 3D смотреть онлайн бесплатно в хорошем качестве
    Вы не можете начинать темы
    Вы не можете отвечать на сообщения
    Вы не можете редактировать свои сообщения
    Вы не можете удалять свои сообщения
    Вы не можете голосовать в опросах
    Вы не можете прикреплять файлы к сообщениям
    Вы можете скачивать файлы