Ссылка на приватное зеркало нашего сайта всего за 1$. Внимание количество ограничено!!!

2 сезон

iTunes

1 сезон

1

iTunes

iTunes

iTunes

1 сезон

RePack

30

ИГРА 18+

pack

ВАЖНО

!!Акция!!

Alien_RageХит недели

RePack

MK11
pack

Забери бонус

RePack

jed

!!Акция!!

Alien_Rage

RePack

fifa19

RePack

Assassins Creed: Odyssey

RePack

NEED FOR SPEED™ PAYBACK

4 сезон

9 сезон

Бесстыжие 9 сезон

Все сериалы

все сериалы на PB.wtf

RePack

FAR CRY 5
  

Доспехи Бога / Long xiong hu di (Джеки Чан, Эрик Цан) [1986 г., боевик, комедия, приключения, BDRip 720p, MVO, закадровый] pb.wtf

Доспехи Бога через торрент pb.wtf

Размер: 4.15 GB | Добавлен: 7 лет 7 мес. назад | Торрент скачан:88 раз
Скачать  

04-03-2013 15:00 Доспехи Бога Скачать торрент  

Доспехи Бога / Long xiong hu di

Год выпуска: 1986
Страна: Югославия
Жанр: боевик, комедия, приключения
Продолжительность: 01:28:30
Перевод: Профессиональный многоголосый, закадровый

Режиссер: Джеки Чан, Эрик Цан
Продюссер: Чуа Лам, Леонард Хо
Сценарий: Эдвард Танг, Чеук-Хон Зето, Кен Лоу

Бюджет: $15 000 000
Премьера в мире: 16 августа 1986

Мировой рейтинг IMDB 6.90 (7 156)



В ролях: Джеки Чан, Алан Там, Розамунд Кван, Лола Форнер, Божидар Смилянич, Кен Бойл, Джон Ладальски, Роберт О’Брайэн, Борис Грегорич, Марсия Чишолм

Описание: «Азиатский ястреб» — так назвали героя Джеки в Европе. Когда он похитил в Африке ритуальный меч, то не предполагал, что это начало опасных приключений. Оказывается, что меч — часть древних доспехов Бога, и если их уничтожить, то в мире будут править силы Ужаса и Зла. Силы Зла, которые укрылись в неприступном монастыре, узнают, что у Джеки есть доступ к остальным доспехам. Они похищают девушку, которую любит Ястреб, и требуют выкупа. Понимая, что одной ловкостью ему не справиться с полчищами бандитов, Джеки добровольно становится человеком — бомбой. Но этот козырь он приберег на самый крайний случай...


Качество: BDRip 720p
Формат: MKV
Видео кодек: H.26x
Аудио кодек: AC3
Видео: 5054 Кбит/сек, 1280 x 720 (16:9) 23,976 fps, (0.229 bit/pixel)
Аудио#1: Русский (АС3, 2 ch, 48 KHz, 192 Кбит/с) (Профессиональный многоголосый - НТВ )
Аудио#2: Русский (АС3, 2 ch, 48 KHz, 192 Кбит/с) (Профессиональный многоголосый - РТР )
Аудио#3: Русский (АС3, 2 ch, 48 KHz, 192 Кбит/с) (Профессиональный многоголосый - Союз Видео )
Аудио#4: Русский (АС3, 2 ch, 48 KHz, 192 Кбит/с) (Профессиональный двухголосый - Гланц и Королёва )
Аудио#5: Русский (АС3, 6 ch, 48 KHz, 448 Кбит/с) (Авторский одноголосый - Гаврилов)
Аудио#6: Английский (АС3, 2 ch, 48 KHz, 448 Кбит/с)
CHAPTERS: YES




Общее
Уникальный идентификатор : 173377020837197130114545223078103333785 (0x826F3319A26BC3E1B0DFBFD23A79BB99)
Полное имя : E:Armour.of.God.1986.3Li.BluRay.720p.mkv
Формат : Matroska
Версия формата : Version 2
Размер файла : 4,15 Гбайт
Продолжительность : 1 ч. 28 м.
Общий поток : 6719 Кбит/сек
Название фильма : Armour of God 1986 By 3Li
Дата кодирования : UTC 2013-03-04 12:57:07
Программа кодирования : mkvmerge v4.0.0 ('The Stars were mine') сборка от Jun 6 2010 16:18:42
Библиотека кодирования : libebml v1.0.0 + libmatroska v1.0.0

Видео
Идентификатор : 1
Формат : AVC
Формат/Информация : Advanced Video Codec
Профиль формата : High@L4.1
Параметр CABAC формата : Да
Параметр ReFrames формата : 4 кадра
Идентификатор кодека : V_MPEG4/ISO/AVC
Продолжительность : 1 ч. 28 м.
Битрейт : 5054 Кбит/сек
Ширина : 1280 пикселей
Высота : 720 пикселей
Соотношение сторон : 16:9
Режим частоты кадров : Постоянный
Частота кадров : 23,976 кадра/сек
Цветовое пространство : YUV
Субдискретизация насыщенности : 4:2:0
Битовая глубина : 8 бит
Тип развёртки : Прогрессивная
Бит/(Пиксели*Кадры) : 0.229
Размер потока : 3,04 Гбайт (73%)
Заголовок : Armour of God 1986 By 3Li
Библиотека кодирования : x264 core 129 r2245 bc13772
Настройки программы : cabac=1 / ref=4 / deblock=1:-3:-3 / analyse=0x3:0x113 / me=umh / subme=9 / psy=1 / psy_rd=1.00:0.00 / mixed_ref=1 / me_range=18 / chroma_me=1 / trellis=1 / 8x8dct=1 / cqm=0 / deadzone=21,11 / fast_pskip=0 / chroma_qp_offset=-2 / threads=3 / lookahead_threads=1 / sliced_threads=0 / nr=0 / decimate=0 / interlaced=0 / bluray_compat=0 / constrained_intra=0 / bframes=3 / b_pyramid=2 / b_adapt=1 / b_bias=0 / direct=1 / weightb=1 / open_gop=0 / weightp=2 / keyint=240 / keyint_min=23 / scenecut=40 / intra_refresh=0 / rc_lookahead=40 / rc=2pass / mbtree=1 / bitrate=5054 / ratetol=1.0 / qcomp=0.60 / qpmin=0 / qpmax=69 / qpstep=4 / cplxblur=20.0 / qblur=0.5 / ip_ratio=1.40 / aq=1:1.00
Язык : English
Default : Нет
Forced : Нет

Аудио #1
Идентификатор : 2
Формат : AC-3
Формат/Информация : Audio Coding 3
Расширение режима : CM (complete main)
Параметр Endianness формата : Big
Идентификатор кодека : A_AC3
Продолжительность : 1 ч. 28 м.
Вид битрейта : Постоянный
Битрейт : 192 Кбит/сек
Каналы : 2 канала
Расположение каналов : Front: L R
Частота : 48,0 КГц
Битовая глубина : 16 бит
Метод сжатия : С потерями
Размер потока : 122 Мбайт (3%)
Заголовок : MVO(НТВ)
Язык : Russian
Default : Да
Forced : Да

Аудио #2
Идентификатор : 3
Формат : AC-3
Формат/Информация : Audio Coding 3
Расширение режима : CM (complete main)
Параметр Endianness формата : Big
Идентификатор кодека : A_AC3
Продолжительность : 1 ч. 28 м.
Вид битрейта : Постоянный
Битрейт : 192 Кбит/сек
Каналы : 2 канала
Расположение каналов : Front: L R
Частота : 48,0 КГц
Битовая глубина : 16 бит
Метод сжатия : С потерями
Размер потока : 122 Мбайт (3%)
Заголовок : MVO(РТР)
Язык : Russian
Default : Нет
Forced : Нет

Аудио #3
Идентификатор : 4
Формат : AC-3
Формат/Информация : Audio Coding 3
Расширение режима : CM (complete main)
Параметр Endianness формата : Big
Идентификатор кодека : A_AC3
Продолжительность : 1 ч. 28 м.
Вид битрейта : Постоянный
Битрейт : 192 Кбит/сек
Каналы : 2 канала
Расположение каналов : Front: L R
Частота : 48,0 КГц
Битовая глубина : 16 бит
Метод сжатия : С потерями
Размер потока : 122 Мбайт (3%)
Заголовок : MVO(Союз Видео)
Язык : Russian
Default : Нет
Forced : Нет

Аудио #4
Идентификатор : 5
Формат : AC-3
Формат/Информация : Audio Coding 3
Расширение режима : CM (complete main)
Параметр Endianness формата : Big
Идентификатор кодека : A_AC3
Продолжительность : 1 ч. 28 м.
Вид битрейта : Постоянный
Битрейт : 192 Кбит/сек
Каналы : 2 канала
Расположение каналов : Front: L R
Частота : 48,0 КГц
Битовая глубина : 16 бит
Метод сжатия : С потерями
Размер потока : 122 Мбайт (3%)
Заголовок : DVO(Гланц и Королёва)
Язык : Russian
Default : Нет
Forced : Нет

Аудио #5
Идентификатор : 6
Формат : AC-3
Формат/Информация : Audio Coding 3
Расширение режима : CM (complete main)
Параметр Endianness формата : Big
Идентификатор кодека : A_AC3
Продолжительность : 1 ч. 28 м.
Вид битрейта : Постоянный
Битрейт : 448 Кбит/сек
Каналы : 6 каналов
Расположение каналов : Front: L C R, Side: L R, LFE
Частота : 48,0 КГц
Битовая глубина : 16 бит
Метод сжатия : С потерями
Размер потока : 284 Мбайт (7%)
Заголовок : AVO(Гаврилов)
Язык : Russian
Default : Нет
Forced : Нет

Аудио #6
Идентификатор : 7
Формат : AC-3
Формат/Информация : Audio Coding 3
Расширение режима : CM (complete main)
Параметр Endianness формата : Big
Идентификатор кодека : A_AC3
Продолжительность : 1 ч. 28 м.
Вид битрейта : Постоянный
Битрейт : 448 Кбит/сек
Каналы : 2 канала
Расположение каналов : Front: L R
Частота : 48,0 КГц
Битовая глубина : 16 бит
Метод сжатия : С потерями
Размер потока : 284 Мбайт (7%)
Заголовок : Armour of God 1986 DD 2.0
Язык : English
Default : Нет
Forced : Нет

Меню
00:00:00.000 : en:00:00:00.000
00:05:04.304 : en:00:05:04.304
00:12:38.132 : en:00:12:38.132
00:16:14.974 : en:00:16:14.974
00:23:52.431 : en:00:23:52.431
00:28:11.690 : en:00:28:11.690
00:37:34.252 : en:00:37:34.252
00:41:36.411 : en:00:41:36.411
00:46:30.788 : en:00:46:30.788
00:51:32.089 : en:00:51:32.089
00:57:40.457 : en:00:57:40.457
01:03:07.784 : en:01:03:07.784
01:07:17.033 : en:01:07:17.033
01:12:38.354 : en:01:12:38.354
01:18:52.728 : en:01:18:52.728


Доспехи Бога скачать торрент


pb.wtf



Скачать Доспехи Бога через торрент http://i51.fastpic.ru/big/2013/0304/62/4007a8e89f4f457aa1271c8ea80b6562.png Скачать фильм Доспехи Бога через торрент бесплантно в хорошем качестве Описание: «Азиатский ястреб» — так назвали героя Джеки в Европе. Когда он похитил в Африке ритуальный меч, то не предполагал, что это ... 10 10 7
Info! Золотая раздача, скачанное не засчитывается.
Торрент: Зарегистрирован [2013-03-04 15:00] · скачан: 88 раз
Статус: √ проверено
Размер: 4.15 GB
Как cкачать? Как скачать Доспехи Бога через торрент | qTorrent

% Раздел Тема Автор DL S | L
Азиатские фильмы [ 1.47 GB ] Доспехи бога / The Armour of God / Long xiong hu di [1986 Югославия Гонконг BDRip] MVO [Союз] + MVO [НТВ] Assassins Creed Скачать
1 | 0

28-11-2019 20:33  

Отключить всю рекламу на сайте

    Дорогой пользователь! Огромная просьба, поблагодарите релизера, оцените раздачу и оставьте свои комментарий, если Вы скачали Доспехи Бога через торрент бесплатно! Внесите свою лепту в развитие PiratBit!
    Комментировать посты могут только пользователи прошедшие не сложную регистрацию
    Показать сообщения:    

    Доспехи Бога через торрент
    Скачать бесплатно Доспехи Бога
    Доспехи Бога скачать торрент
    Доспехи Бога смотреть онлайн
    Cкачать фильм Доспехи Бога бесплатно
    Доспехи Бога скачать торрент в хорошем качестве
    Доспехи Бога смотреть онлайн бесплатно в хорошем качестве


    Вы не можете начинать темы
    Вы не можете отвечать на сообщения
    Вы не можете редактировать свои сообщения
    Вы не можете удалять свои сообщения
    Вы не можете голосовать в опросах
    Вы не можете прикреплять файлы к сообщениям
    Вы можете скачивать файлы