MEGA SALE -50% FORZA HORIZON 4 ULTIMATE+ВСЕ DLC+ОНЛАЙН всего за 599р. 299 руб. (супер цена). Внимание количество ограничено!!!

iTunes

1+1

iTunes

мы

iTunes

1

iTunes

Чернобыль

iTunes

Ральф против интернета

Лицензия

ПШазам

Лицензия

Игра престолов

Лицензия

30
pack

ВАЖНО

!!Акция!!

Alien_RageХит недели

RePack

Resident Evil 21

ИГРА 18+

pack

RePack

Metro:Exodus

!!Акция!!

Alien_Rage

RePack

fifa19

RePack

Assassins Creed: Odyssey

RePack

NEED FOR SPEED™ PAYBACK

3 сезон

9 сезон

Бесстыжие 9 сезон

Все сериалы

все сериалы на PB.wtf

RePack

FAR CRY 5
Ребята, катастрофически не хватает 7730р. для оплаты серверов за АВГУСТ (всвязи с блокировками трафик упал в 3 раза), 1-2р., выручайте.
  

Треугольник / Triangle / Aavelaiva Triangle (Кристофер Смит) [2009 г., Детектив, Триллер, Ужасы, BDRip, MVO + AVO одноголосый + Оригинал + Профессиональный двухголосый] pb.wtf

Треугольник через торрент pb.wtf

Размер: 2.5 GB | Добавлен: 6 лет 6 мес. назад | Торрент скачан:640 раз
Скачать  

05-03-2013 11:13 Треугольник Скачать торрент  

Треугольник / Triangle / Aavelaiva Triangle
«Леденящий ужас на волнах»

Год выпуска: 2009
Страна: Великобритания, Австралия
Жанр: Детектив, Триллер, Ужасы
Продолжительность: 01:38:51
Перевод: Профессиональный (многоголосый закадровый)ТВ-3 + Профессиональный (одноголосый закадровый) Ю.Немахов + Оригинал (Английский) + Двухголосый закадровый, R5 / внешняя

Режиссер: Кристофер Смит
Продюссер: Джули Бэйнс, Крис Браун, Джейсон Ньюмарк
Сценарий: Кристофер Смит

Бюджет: $12 000 000
Премьера в мире: 27 августа 2009

В ролях: Лайам Хемсворт, Мелисса Джордж, Рейчал Карпани, Эмма Ланг, Майкл Дорман, Генри Никсон, Джошуа МакИвор

Описание: Грег приглашает свою подругу Джесс, молодую мать-одиночку, провести день на яхте в кругу своих друзей. Начавшийся сильный шторм переворачивает судно, и оставшиеся в живых вынуждены дожидаться помощи, цепляясь за перевернутый корпус яхты. Спасение приходит в виде огромного океанического лайнера. Судно оказывается пустым, часы на борту остановились. Но они не одни на этом огромном корабле — за ними кто-то неустанно следит…

Качество: BDRip (Исходник BDRemux)
Формат: AVI
Видео кодек: XviD
Аудио кодек: AC3
Видео: 720х304, 24,000 fps, 1799 kbps, 0.342 bit/pixel
Аудио#1: 48 kHz, AC3 5.1, 448.00 kbps / Профессиональный (многоголосый закадровый)ТВ-3
Аудио#2: 48 kHz, AC3 5.1, 448.00 kbps / Профессиональный (одноголосый закадровый) Ю.Немахов
Аудио#3: 48 kHz, AC3 5.1, 448.00 kbps / Оригинал (Английский)
Аудио#4: 48 kHz, AC3 5.1, 448.00 kbps / Двухголосый закадровый, R5 / внешняя
Субтитры: русские, английские |softsub SRT| / внешние
&
Общее
Полное имя : E:Фильмы МTriangle.2009.BDRipTriangle.2009.BDRip.avi
Формат : AVI
Формат/Информация : Audio Video Interleave
Профиль формата : OpenDML
Размер файла : 2,19 Гбайт
Продолжительность : 1 ч. 38 м.
Общий поток : 3167 Кбит/сек
Программа кодирования : VirtualDubModRus 1.5.10.2 (build 2542/release)
Библиотека кодирования : VirtualDubMod build 2542/release

Видео
Идентификатор : 0
Формат : MPEG-4 Visual
Профиль формата : Advanced Simple@L5
Параметр BVOP формата : 1
Параметр QPel формата : Нет
Параметр GMC формата : Без точки перехода
Параметр матрицы формата : Выборочная
Режим смешивания : Сжатый битовый поток
Идентификатор кодека : XVID
Идентификатор кодека/Подсказка : XviD
Продолжительность : 1 ч. 38 м.
Битрейт : 1799 Кбит/сек
Ширина : 720 пикселей
Высота : 304 пикселя
Соотношение сторон : 2,35:1
Частота кадров : 24,000 кадра/сек
Цветовое пространство : YUV
Субдискретизация насыщенности : 4:2:0
Битовая глубина : 8 бит
Тип развёртки : Прогрессивная
Метод сжатия : С потерями
Бит/(Пиксели*Кадры) : 0.342
Размер потока : 1,24 Гбайт (57%)
Библиотека кодирования : XviD 65

Аудио #1
Идентификатор : 1
Формат : AC-3
Формат/Информация : Audio Coding 3
Расширение режима : CM (complete main)
Параметр Endianness формата : Big
Идентификатор кодека : 2000
Продолжительность : 1 ч. 38 м.
Вид битрейта : Постоянный
Битрейт : 448 Кбит/сек
Каналы : 6 каналов
Расположение каналов : Front: L C R, Side: L R, LFE
Частота : 48,0 КГц
Битовая глубина : 16 бит
Метод сжатия : С потерями
Размер потока : 317 Мбайт (14%)
Выравнивание : Разделение по промежуткам
Продолжительность промежутка : 42 мс. (1,00 видеокадр)
Время предзагрузки промежутка : 500 мс.
Заголовок : Профессиональный (многоголосый закадровый)

Аудио #2
Идентификатор : 2
Формат : AC-3
Формат/Информация : Audio Coding 3
Расширение режима : CM (complete main)
Параметр Endianness формата : Big
Идентификатор кодека : 2000
Продолжительность : 1 ч. 38 м.
Вид битрейта : Постоянный
Битрейт : 448 Кбит/сек
Каналы : 6 каналов
Расположение каналов : Front: L C R, Side: L R, LFE
Частота : 48,0 КГц
Битовая глубина : 16 бит
Метод сжатия : С потерями
Размер потока : 317 Мбайт (14%)
Выравнивание : Разделение по промежуткам
Продолжительность промежутка : 42 мс. (1,00 видеокадр)
Время предзагрузки промежутка : 500 мс.

Аудио #3
Идентификатор : 3
Формат : AC-3
Формат/Информация : Audio Coding 3
Расширение режима : CM (complete main)
Параметр Endianness формата : Big
Идентификатор кодека : 2000
Продолжительность : 1 ч. 38 м.
Вид битрейта : Постоянный
Битрейт : 448 Кбит/сек
Каналы : 6 каналов
Расположение каналов : Front: L C R, Side: L R, LFE
Частота : 48,0 КГц
Битовая глубина : 16 бит
Метод сжатия : С потерями
Размер потока : 317 Мбайт (14%)
Выравнивание : Разделение по промежуткам
Продолжительность промежутка : 42 мс. (1,00 видеокадр)
Время предзагрузки промежутка : 500 мс.
Заголовок : Оригинал (Английский)


Треугольник скачать торрент


pb.wtf



Скачать Треугольник через торрент http://i54.fastpic.ru/big/2013/0305/79/f4c10a710bca61c96c24f3ef17b97a79.jpg Скачать фильм Треугольник через торрент бесплантно в хорошем качестве Описание: Грег приглашает свою подругу Джесс, молодую мать-одиночку, провести день на яхте в кругу своих друзей. Начавшийся сильный шторм ... 8.8 10 9
Info! Золотая раздача, скачанное не засчитывается.
Торрент: Зарегистрирован [2013-03-05 11:13] · скачан: 640 раз
Статус: √ проверено
Размер: 2.5 GB
Как cкачать? Как скачать Треугольник через торрент | qTorrent


>> Регистрируемся здесь <<






Отзывы и комментарии о схеме читаем и пишем здесь: ---> Отзывы и комментарии о схеме

Новые благодарочки в телеграм довольных пользователей:
скриншот   скриншот   скриншот   скриншот   скриншот

05-03-2013 12:50 Треугольник Скачать торрент  

Прикольное кинцо!pb.wtf



05-03-2013 13:17 Треугольник Скачать торрент  

Очень нравится фильм, пораздаю..pb.wtf



05-03-2013 13:43 Треугольник Скачать торрент  

Да, хорошее кино!pb.wtf



05-03-2013 14:09 Треугольник Скачать торрент  

стоит посмотреть!!!pb.wtf



05-03-2013 20:44 Треугольник Скачать торрент  

хороший интересный фильмpb.wtf



31-03-2013 23:46 Треугольник Скачать торрент  

полное омно!!!!pb.wtf



09-05-2013 18:47 Треугольник Скачать торрент  

Андрей Лазуритный Гном Одобряетpb.wtf



    Дорогой пользователь! Огромная просьба, поблагодарите релизера, оцените раздачу и оставьте свои комментарий, если Вы скачали Треугольник через торрент бесплатно! Внесите свою лепту в развитие PiratBit!
    Комментировать посты могут только пользователи прошедшие не сложную регистрацию
    Показать сообщения:    

    Треугольник через торрент
    Скачать бесплатно Треугольник
    Треугольник скачать торрент
    Треугольник смотреть онлайн
    Cкачать фильм Треугольник бесплатно
    Треугольник скачать торрент в хорошем качестве
    Треугольник смотреть онлайн бесплатно в хорошем качестве


    Вы не можете начинать темы
    Вы не можете отвечать на сообщения
    Вы не можете редактировать свои сообщения
    Вы не можете удалять свои сообщения
    Вы не можете голосовать в опросах
    Вы не можете прикреплять файлы к сообщениям
    Вы можете скачивать файлы