новый адрес пиратбит piratbit
Мега распродажа FORZA HORIZON 4 ULTIMATE+ВСЕ DLC+ОНЛАЙН всего за 499р. 349 руб. (супер цена). Внимание количество ограничено!!!

iTunes

1+1

iTunes

мы

iTunes

1

iTunes

Чернобыль

iTunes

Ральф против интернета

Лицензия

ПШазам

Лицензия

Игра престолов

Лицензия

30
pack

ВАЖНО

!!Акция!!

Alien_RageХит недели

RePack

Resident Evil 21

ИГРА 18+

pack

RePack

Metro:Exodus

!!Акция!!

Alien_Rage

RePack

fifa19

RePack

Assassins Creed: Odyssey

RePack

NEED FOR SPEED™ PAYBACK

3 сезон

9 сезон

Бесстыжие 9 сезон

Все сериалы

все сериалы на PB.wtf

RePack

FAR CRY 5
Ребята, катастрофически не хватает 1900р. для оплаты серверов за Октябрь (всвязи с блокировками трафик упал в 3 раза), 1-2р., выручайте.
  

Холодное лето пятьдесят третьего (Александр Прошкин) [1987 г.,драма,криминал, DVDRip] pb.wtf

Холодное лето пятьдесят третьего через торрент pb.wtf

Размер: 1.46 GB | Добавлен: 6 лет 8 мес. назад | Торрент скачан:109 раз
Скачать  

05-03-2013 16:53 Холодное лето пятьдесят третьего Скачать торрент  

Холодное лето пятьдесят третьего

Год выпуска: 1987
Страна: СССР
Жанр: криминал, драма
Продолжительность: 01:36:04
Перевод: Не требуется

Режиссер: Александр Прошкин
Сценарий: Эдгар Дубровский

Премьера в мире: 3 ноября 1988



В ролях:
Валерий Приёмыхов — «Лузга»
Анатолий Папанов — «Копалыч»
Виктор Степанов — Манков, участковый
Нина Усатова — Лидия Матвеевна, немая
Зоя Буряк — Шура, дочь Лидии Матвеевны
Юрий Кузнецов — Иван Зотов, управляющий фактории
Владимир Кашпур — Фадеич, начальник рейда
Сергей Власов — уголовник Витёк
Владимир Головин — уголовник «Барон», вор в законе
Андрей Дударенко — уголовник Михалыч
Александр Завьялов — уголовник «Муха»
Алексей Колесник — уголовник «Крюк»
Виктор Косых — уголовник «Шуруп»
Борис Плотников — сын Старобогатова
Елизавета Солодова — жена Старобогатова

Описание: Двое бывших политзаключённых, недавно вышедших из лагеря, вступают в схватку с бандой амнистированных уголовников. Победу приходится оплатить дорогой ценой.

Почти детективная история неравного поединка заканчивается и оптимистически, и трагически. Время действия — 1953 год, страна на пороге больших перемен…
* 27 марта 1953 года вышел Указ Президиума Верховного Совета СССР об амнистии. Из тюрем и лагерей вышли более 2 млн. уголовников.
* Рабочее название фильма — «Ближняя история».
* На роль бывшего инженера Николая Скоробогатова (Анатолий Папанов) режиссер пробовал Георгия Юматова и Вацлава Дворжецкого.
* Пристань, с которой бандитам кричали «Не сметь входить на государственную пристань!», сохранилась до наших дней (2007 год).
* В картине сыграл свою последнюю кинематографическую роль Анатолий Папанов. Зрители увидели фильм спустя год после его смерти.
* Съемки происходили в деревне Руга недалеко от Петрозаводска с конца июля до второй половины августа 1987 года. Приходилось работать без выходных — северное лето довольно короткое.
* Строить специальные декорации не пришлось, в деревне было заселено всего два дома, остальные стояли заброшенными.
* После показа фильма к актерам часто подходили люди и интересовались, где они сидели и за что.
* Нина Усатова, для того чтобы более достоверно сыграть глухонемую, специально ходила в интернат для глухонемых, чтобы понять как они себя ведут, жестикулируют и т. д.
* Деревня, в которой проходили съемки, больше не существует. Немногочисленные дома сгорели во время пожара.
* Занимает по посещаемости 77-е место среди отечественных фильмов за всю историю советского кинопроката.
* Лучший фильм по опросу журнала «Советский экран» в 1989 году.
Качество: DVDRip
Формат: AVI
Видео кодек: XviD
Аудио кодек: AC3
Видео: 688x512, (4:3), 25,000 кадров/сек, 1716 Кбит/сек, 0.195 бит/пикс
Аудио#1: 48,0 КГц, АС3, 6 каналов, 448 Кбит/сек
скриншот  скриншот  скриншот  скриншот  скриншот  скриншот  
Общее
Полное имя : D:загрузкиХолодное лето 53-го DVDRip.avi
Формат : AVI
Формат/Информация : Audio Video Interleave
Размер файла : 1,46 Гбайт
Продолжительность : 1 ч. 36 м.
Общий поток : 2174 Кбит/сек
Программа кодирования : VirtualDubModRus 1.5.10.2 (build 2542/release)
Библиотека кодирования : VirtualDubMod build 2542/release

Видео
Идентификатор : 0
Формат : MPEG-4 Visual
Профиль формата : Advanced Simple@L5
Параметр BVOP формата : 2
Параметр QPel формата : Нет
Параметр GMC формата : Без точки перехода
Параметр матрицы формата : Default (MPEG)
Режим смешивания : Сжатый битовый поток
Идентификатор кодека : XVID
Идентификатор кодека/Подсказка : XviD
Продолжительность : 1 ч. 36 м.
Битрейт : 1716 Кбит/сек
Ширина : 688 пикселей
Высота : 512 пикселей
Соотношение сторон : 4:3
Частота кадров : 25,000 кадров/сек
Цветовое пространство : YUV
Субдискретизация насыщенности : 4:2:0
Битовая глубина : 8 бит
Тип развёртки : Прогрессивная
Метод сжатия : С потерями
Бит/(Пиксели*Кадры) : 0.195
Размер потока : 1,15 Гбайт (79%)
Библиотека кодирования : XviD 1.2.1 (UTC 2008-12-04)

Аудио
Идентификатор : 1
Формат : AC-3
Формат/Информация : Audio Coding 3
Расширение режима : CM (complete main)
Параметр Endianness формата : Big
Идентификатор кодека : 2000
Продолжительность : 1 ч. 36 м.
Вид битрейта : Постоянный
Битрейт : 448 Кбит/сек
Каналы : 6 каналов
Расположение каналов : Front: L C R, Side: L R, LFE
Частота : 48,0 КГц
Битовая глубина : 16 бит
Метод сжатия : С потерями
Размер потока : 308 Мбайт (21%)
Выравнивание : Соединение по промежуткам
Продолжительность промежутка : 40 мс. (1,00 видеокадр)
Время предзагрузки промежутка : 512 мс.
pb.wtf



Скачать Холодное лето пятьдесят третьего через торрент http://pic.kartinco.top/images/2/xzibpjv7jm.jpg Скачать фильм Холодное лето пятьдесят третьего через торрент бесплантно в хорошем качестве Описание: Двое бывших политзаключённых, недавно вышедших из лагеря, вступают в схватку с бандой амнистированных уголовников. Победу ... 9.9 10 14
Info! Золотая раздача, скачанное не засчитывается.
Торрент: Зарегистрирован [2013-03-05 16:53] · скачан: 109 раз
Статус: √ проверено
Размер: 1.46 GB
Как cкачать? Как скачать Холодное лето пятьдесят третьего через торрент | qTorrent

% Раздел Тема Автор DL S | L
Наши фильмы (HD, WEB-DL 720p, 1080p) [ 3.46 GB ] Холодное лето пятьдесят третьего... [1987 HDTVRip 720р от KORSAR] filbi1976 Скачать
1 | 0
Кино СССР [ 1.48 GB ] Холодное лето пятьдесят третьего [1987 WEBRip-AVC] aleksan55 Скачать
1 | 0
Кино СССР [ 1.47 GB ] Холодное лето пятьдесят третьего [1987 DVDRip-AVC] Azazel Скачать
1 | 0


>> Регистрируемся здесь <<






Отзывы и комментарии о схеме читаем и пишем здесь: ---> Отзывы и комментарии о схеме

Новые благодарочки в телеграм довольных пользователей:
скриншот   скриншот   скриншот   скриншот   скриншот

05-03-2013 17:34 Холодное лето пятьдесят третьего Скачать торрент  

какой ты нафиг топ сидер скорости давай)pb.wtf



05-03-2013 18:17 Холодное лето пятьдесят третьего Скачать торрент  

666gtr666
скорость
чо тебе еще надо?pb.wtf



    Дорогой пользователь! Огромная просьба, поблагодарите релизера, оцените раздачу и оставьте свои комментарий, если Вы скачали Холодное лето пятьдесят третьего через торрент бесплатно! Внесите свою лепту в развитие PiratBit!
    Комментировать посты могут только пользователи прошедшие не сложную регистрацию
    Показать сообщения:    

    Холодное лето пятьдесят третьего через торрент
    Скачать бесплатно Холодное лето пятьдесят третьего
    Холодное лето пятьдесят третьего скачать торрент
    Холодное лето пятьдесят третьего смотреть онлайн
    Cкачать фильм Холодное лето пятьдесят третьего бесплатно
    Холодное лето пятьдесят третьего скачать торрент в хорошем качестве
    Холодное лето пятьдесят третьего смотреть онлайн бесплатно в хорошем качестве


    Вы не можете начинать темы
    Вы не можете отвечать на сообщения
    Вы не можете редактировать свои сообщения
    Вы не можете удалять свои сообщения
    Вы не можете голосовать в опросах
    Вы не можете прикреплять файлы к сообщениям
    Вы можете скачивать файлы