MEGA SALE -50% FORZA HORIZON 4 ULTIMATE+ВСЕ DLC+ОНЛАЙН всего за 599р. 299 руб. (супер цена). Внимание количество ограничено!!!

iTunes

1+1

iTunes

мы

iTunes

1

iTunes

Чернобыль

1 сезон

Ральф против интернета

Лицензия

ПШазам

Лицензия

Игра престолов

Лицензия

30
pack

ВАЖНО

!!Акция!!

Alien_RageХит недели

RePack

Resident Evil 21

ИГРА 18+

pack

RePack

Metro:Exodus

!!Акция!!

Alien_Rage

RePack

fifa19

RePack

Assassins Creed: Odyssey

RePack

NEED FOR SPEED™ PAYBACK

3 сезон

9 сезон

Бесстыжие 9 сезон

Все сериалы

все сериалы на PB.wtf

RePack

FAR CRY 5
Ребята, катастрофически не хватает 7730р. для оплаты серверов за ИЮЛЬ (всвязи с блокировками трафик упал в 3 раза), 1-2р., выручайте.
  

Отправь их в ад, Мэлоун! / Give 'em Hell, Malone (Рассел Малкэй) [2009 г., Триллер, Боевик, Криминал, BDRip, MVO + AVO - Goblin + Оригинал] pb.wtf

Отправь их в ад, Мэлоун! через торрент pb.wtf

Размер: 1.45 GB | Добавлен: 6 лет 5 мес. назад | Торрент скачан:281 раз
Скачать  

06-03-2013 09:04 Отправь их в ад, Мэлоун! Скачать торрент  

Отправь их в ад, Мэлоун! / Give 'em Hell, Malone
«Любить его сложно, убить ещё сложнее...»

Год выпуска: 2009
Страна: США
Жанр: Триллер, Боевик, Криминал
Продолжительность: 01:36:32
Перевод: Профессиональный (многоголосый закадровый) R5 + Авторский (одноголосый закадровый) Goblin + Оригинал (Английский)

Режиссер: Рассел Малкэй
Продюссер: Эрик Андерсон, Джонни Мартин, Брайан Оливер
Сценарий: Марк Хосэк

Бюджет: $15 000 000
Премьера в мире: 25 июля 2009

В ролях: Томас Джейн, Винг Рэймс, Эльза Патаки, Френч Стюарт, Лиленд Орсер, Крис Йен, Уильям Абади, Грегори Харрисон, Даг Хатчисон, Айлин Райан

Описание: Главный герой — матерый частный детектив Мэлоун, которого нанимают доставить безжалостному гангстеру Уитмору нечто ценное и загадочное. По пути Мэлоуну придется противостоять разномастным головорезам, киллерам и прочим отморозкам и любой ценой доставить доверенный ему груз.

Качество: BDRip (Исходник BDRemux 1080p)
Формат: AVI
Видео кодек: XviD
Аудио кодек: AC3
Видео: 720х304, 23,976 fps, 1552 kbps, 0.296 bit/pixel
Аудио#1: 48 kHz, AC3 2.0, 192.00 kbps / Профессиональный (многоголосый закадровый) R5
Аудио#2: 48 kHz, AC3 2.0, 192.00 kbps / Профессиональный (одноголосый закадровый) Goblin
Аудио#3: 48 kHz, AC3 2.0, 192.00 kbps / Оригинал (Английский)
Субтитры: русские, английские |softsub SRT| / внешние
&
Общее
Полное имя : E:Фильмы МGive 'em Hell, Malone.2009.BDRipGive 'em Hell, Malone.2009.BDRip.avi
Формат : AVI
Формат/Информация : Audio Video Interleave
Размер файла : 1,45 Гбайт
Продолжительность : 1 ч. 36 м.
Общий поток : 2148 Кбит/сек
Программа кодирования : VirtualDubModRus 1.5.10.2 (build 2542/release)
Библиотека кодирования : VirtualDubMod build 2542/release

Видео
Идентификатор : 0
Формат : MPEG-4 Visual
Профиль формата : Advanced Simple@L5
Параметр BVOP формата : 1
Параметр QPel формата : Нет
Параметр GMC формата : Без точки перехода
Параметр матрицы формата : Выборочная
Режим смешивания : Сжатый битовый поток
Идентификатор кодека : XVID
Идентификатор кодека/Подсказка : XviD
Продолжительность : 1 ч. 36 м.
Битрейт : 1552 Кбит/сек
Ширина : 720 пикселей
Высота : 304 пикселя
Соотношение сторон : 2,35:1
Частота кадров : 23,976 кадра/сек
Цветовое пространство : YUV
Субдискретизация насыщенности : 4:2:0
Битовая глубина : 8 бит
Тип развёртки : Прогрессивная
Метод сжатия : С потерями
Бит/(Пиксели*Кадры) : 0.296
Размер потока : 1,05 Гбайт (72%)
Библиотека кодирования : XviD 65

Аудио #1
Идентификатор : 1
Формат : AC-3
Формат/Информация : Audio Coding 3
Расширение режима : CM (complete main)
Параметр Endianness формата : Big
Идентификатор кодека : 2000
Продолжительность : 1 ч. 36 м.
Вид битрейта : Постоянный
Битрейт : 192 Кбит/сек
Каналы : 2 канала
Расположение каналов : Front: L R
Частота : 48,0 КГц
Битовая глубина : 16 бит
Метод сжатия : С потерями
Размер потока : 132 Мбайт (9%)
Выравнивание : Разделение по промежуткам
Продолжительность промежутка : 42 мс. (1,00 видеокадр)
Время предзагрузки промежутка : 500 мс.
Заголовок : Профессиональный (многоголосый закадровый R5

Аудио #2
Идентификатор : 2
Формат : AC-3
Формат/Информация : Audio Coding 3
Расширение режима : CM (complete main)
Параметр Endianness формата : Big
Идентификатор кодека : 2000
Продолжительность : 1 ч. 36 м.
Вид битрейта : Постоянный
Битрейт : 192 Кбит/сек
Каналы : 2 канала
Расположение каналов : Front: L R
Частота : 48,0 КГц
Битовая глубина : 16 бит
Метод сжатия : С потерями
Размер потока : 132 Мбайт (9%)
Выравнивание : Разделение по промежуткам
Продолжительность промежутка : 42 мс. (1,00 видеокадр)
Время предзагрузки промежутка : 500 мс.
Заголовок : Профессиональный (одноголосый закадровый, Goblin

Аудио #3
Идентификатор : 3
Формат : AC-3
Формат/Информация : Audio Coding 3
Расширение режима : CM (complete main)
Параметр Endianness формата : Big
Идентификатор кодека : 2000
Продолжительность : 1 ч. 36 м.
Вид битрейта : Постоянный
Битрейт : 192 Кбит/сек
Каналы : 2 канала
Расположение каналов : Front: L R
Частота : 48,0 КГц
Битовая глубина : 16 бит
Метод сжатия : С потерями
Размер потока : 132 Мбайт (9%)
Выравнивание : Разделение по промежуткам
Продолжительность промежутка : 42 мс. (1,00 видеокадр)
Время предзагрузки промежутка : 500 мс.
Заголовок : Оригинал (Английский)


Отправь их в ад, Мэлоун! скачать торрент


pb.wtf



Скачать Отправь их в ад, Мэлоун! через торрент http://i53.fastpic.ru/big/2013/0306/20/73b0001176273de5175b38112eab3720.png Скачать фильм Отправь их в ад, Мэлоун! через торрент бесплантно в хорошем качестве Описание: Главный герой — матерый частный детектив Мэлоун, которого нанимают доставить безжалостному гангстеру Уитмору нечто ценное и ... 10 10 4
Info! Золотая раздача, скачанное не засчитывается.
Торрент: Зарегистрирован [2013-03-06 09:04] · скачан: 281 раз
Статус: √ проверено
Размер: 1.45 GB
Как cкачать? Как скачать Отправь их в ад, Мэлоун! через торрент | qTorrent


>> Регистрируемся здесь <<






Отзывы и комментарии о схеме читаем и пишем здесь: ---> Отзывы и комментарии о схеме

Новые благодарочки в телеграм довольных пользователей:
скриншот   скриншот   скриншот   скриншот   скриншот

06-03-2013 13:12 Отправь их в ад, Мэлоун! Скачать торрент  

pb.wtf



06-03-2013 13:19 Отправь их в ад, Мэлоун! Скачать торрент  

Спасибо большое!!!!!!!pb.wtf



    Дорогой пользователь! Огромная просьба, поблагодарите релизера, оцените раздачу и оставьте свои комментарий, если Вы скачали Отправь их в ад, Мэлоун! через торрент бесплатно! Внесите свою лепту в развитие PiratBit!
    Комментировать посты могут только пользователи прошедшие не сложную регистрацию
    Показать сообщения:    

    Отправь их в ад, Мэлоун! через торрент
    Скачать бесплатно Отправь их в ад, Мэлоун!
    Отправь их в ад, Мэлоун! скачать торрент
    Отправь их в ад, Мэлоун! смотреть онлайн
    Cкачать фильм Отправь их в ад, Мэлоун! бесплатно
    Отправь их в ад, Мэлоун! скачать торрент в хорошем качестве
    Отправь их в ад, Мэлоун! смотреть онлайн бесплатно в хорошем качестве


    Вы не можете начинать темы
    Вы не можете отвечать на сообщения
    Вы не можете редактировать свои сообщения
    Вы не можете удалять свои сообщения
    Вы не можете голосовать в опросах
    Вы не можете прикреплять файлы к сообщениям
    Вы можете скачивать файлы