Достать ножи: Стеклянная луковица

MVO

Добыча

Дубляж

Уэнсдэй

1 сезон

Тор

Дубляж

13 клиническая

1 сезон

Жестокая ночь

MVO

Одни из нас

1 сезон

Deluxe

pack

Рекомендуем

30

Пиратка

ВАЖНО

ВАЖНО

Ghostwire

Пиратка

jed

RePack

nioh2

RePack

RDR2

RePack

NEED FOR SPEED™ PAYBACK

RePack

скачать торрент

Кинопоиск HD

Острые козырьки 6 сезон

6 сезон

FAR CRY 6

RePack

скачать торрент

Лицензия

скачать торрент

MVO

1

1 сезон

скачать торрент

1 сезон

скачать торрент

Лицензия

  

Робот и Фрэнк / Robot & Frank (Джейк Шрейер) [2012 г., фантастика, драма, комедия, криминал, BDRip 1080p, MVO, лицензия]

Робот и Фрэнк через торрент pb.wtf

Размер: 9.27 GB | Добавлен: 9 лет назад | Торрент скачан:165 раз
Смотреть онлайн | Скачать | Поддержите нас   

06-03-2013 13:45 Робот и Фрэнк Скачать торрент  

Робот и Фрэнк / Robot & Frank

«Friendship doesn't have an off switch.»

Год выпуска: 2012
Страна: США
Жанр: фантастика, драма, комедия, криминал
Продолжительность: 01:29:00
Перевод: Профессиональный многоголосый, Лицензия

Режиссер: Джейк Шрейер
Продюссер: Лэнс Экорд, Джеки Келман Бисби, Сэм Бисби
Сценарий: Кристофер Д. Форд

Мировой рейтинг IMDB 7.10 (8 894)


В ролях: Фрэнк Ланджелла, Джеймс Марсден, Лив Тайлер, Сьюзен Сарандон, Питер Сарсгаард, Джереми Стронг, Дарио Бароссо, Бонни Бентли, Ана Гастейер, Рэйчел Ма

Описание: Фильм о трогательной дружбе старика и робота. История заключается в том, что пожилой мужчина, Фрэнк, в прошлом, кстати, вор-взломщик, живет в одиночестве. Его уже взрослые дети далеко, и чтобы хоть как-то помочь стареющему отцу, у которого начинает развиваться болезнь Альцгеймера, сын дарит Фрэнку робота-компаньона. Действие фильма происходит в не очень далеком будущем, роботы в домашнем хозяйстве — вполне нормальное явление. Поскольку Фрэнк считает себя человеком самостоятельным и не желает, чтобы за ним кто-то или что-то присматривало, он с опаской относится к подаренному роботу.

Качество: BDRip 1080p
Формат: MKV
Видео кодек: H.26x
Аудио кодек: DTS
Видео: 1920x800 (2.40:1), 23.976 fps, 12.0 Mbps (0.326 bit/pixel)
Аудио#1: DTS, 48.0 KHz, 6 ch, 1 510 Kbps, CBR (Russian)
Аудио#2: DTS, 48.0 KHz, 6 ch, 1 510 Kbps, CBR (English)
Субтитры: Русские, английские







Общее
Уникальный идентификатор : 198386970870383956881830087976044360534 (0x953FF0D6CC3FDBFE9B0CEB56FC167356)
Полное имя : F:Robot.i.Frenk.2012.x264.BDRip(1080p).mkv
Формат : Matroska
Версия формата : Version 2
Размер файла : 9,27 Гбайт
Продолжительность : 1 ч. 29 м.
Общий поток : 14,9 Мбит/сек
Название фильма : --SCHUMAHER--
Дата кодирования : UTC 2013-03-06 11:33:58
Программа кодирования : mkvmerge v5.8.0 ('No Sleep / Pillow') built on Sep 2 2012 15:37:04
Библиотека кодирования : libebml v1.2.3 + libmatroska v1.3.0

Видео
Идентификатор : 1
Формат : AVC
Формат/Информация : Advanced Video Codec
Профиль формата : [email protected]
Параметр CABAC формата : Да
Параметр ReFrames формата : 5 кадров
Идентификатор кодека : V_MPEG4/ISO/AVC
Продолжительность : 1 ч. 29 м.
Битрейт : 12,0 Мбит/сек
Ширина : 1920 пикселей
Высота : 800 пикселей
Соотношение сторон : 2,40:1
Режим частоты кадров : Постоянный
Частота кадров : 23,976 кадра/сек
Цветовое пространство : YUV
Субдискретизация насыщенности : 4:2:0
Битовая глубина : 8 бит
Тип развёртки : Прогрессивная
Бит/(Пиксели*Кадры) : 0.326
Размер потока : 7,21 Гбайт (78%)
Библиотека кодирования : x264 core 129 r2230 1cffe9f
Настройки программы : cabac=1 / ref=5 / deblock=1:-3:-3 / analyse=0x3:0x113 / me=umh / subme=7 / psy=1 / psy_rd=1.00:0.00 / mixed_ref=1 / me_range=16 / chroma_me=1 / trellis=1 / 8x8dct=1 / cqm=0 / deadzone=21,11 / fast_pskip=1 / chroma_qp_offset=-2 / threads=16 / lookahead_threads=2 / sliced_threads=0 / nr=0 / decimate=1 / interlaced=0 / bluray_compat=0 / constrained_intra=0 / bframes=3 / b_pyramid=2 / b_adapt=1 / b_bias=0 / direct=3 / weightb=1 / open_gop=0 / weightp=2 / keyint=240 / keyint_min=23 / scenecut=40 / intra_refresh=0 / rc_lookahead=50 / rc=abr / mbtree=1 / bitrate=12000 / ratetol=1.0 / qcomp=0.60 / qpmin=0 / qpmax=69 / qpstep=4 / ip_ratio=1.40 / aq=1:1.00
Язык : English
Default : Да
Forced : Да

Аудио #1
Идентификатор : 2
Формат : DTS
Формат/Информация : Digital Theater Systems
Режим : 16
Параметр Endianness формата : Big
Идентификатор кодека : A_DTS
Продолжительность : 1 ч. 29 м.
Вид битрейта : Постоянный
Битрейт : 1509 Кбит/сек
Каналы : 6 каналов
Расположение каналов : Front: L C R, Side: L R, LFE
Частота : 48,0 КГц
Битовая глубина : 24 бит
Метод сжатия : С потерями
Размер потока : 961 Мбайт (10%)
Язык : Russian
Default : Да
Forced : Да

Аудио #2
Идентификатор : 3
Формат : DTS
Формат/Информация : Digital Theater Systems
Режим : 16
Параметр Endianness формата : Big
Идентификатор кодека : A_DTS
Продолжительность : 1 ч. 29 м.
Вид битрейта : Постоянный
Битрейт : 1509 Кбит/сек
Каналы : 6 каналов
Расположение каналов : Front: L C R, Side: L R, LFE
Частота : 48,0 КГц
Битовая глубина : 24 бит
Метод сжатия : С потерями
Размер потока : 961 Мбайт (10%)
Язык : English
Default : Нет
Forced : Нет

Текст #1
Идентификатор : 4
Формат : UTF-8
Идентификатор кодека : S_TEXT/UTF8
Идентификатор кодека/Информация : UTF-8 Plain Text
Язык : Russian
Default : Нет
Forced : Нет

Текст #2
Идентификатор : 5
Формат : UTF-8
Идентификатор кодека : S_TEXT/UTF8
Идентификатор кодека/Информация : UTF-8 Plain Text
Язык : English
Default : Нет
Forced : Нет

Меню
00:00:00.000 : en:00:00:00.000
00:04:21.303 : en:00:04:21.303
00:08:40.895 : en:00:08:40.895
00:13:52.832 : en:00:13:52.832
00:17:57.243 : en:00:17:57.243
00:23:37.708 : en:00:23:37.708
00:29:37.317 : en:00:29:37.317
00:34:08.630 : en:00:34:08.630
00:39:36.749 : en:00:39:36.749
00:44:04.892 : en:00:44:04.892
00:50:52.841 : en:00:50:52.841
00:57:55.472 : en:00:57:55.472
01:01:44.117 : en:01:01:44.117
01:07:34.926 : en:01:07:34.926
01:13:00.376 : en:01:13:00.376
01:19:23.425 : en:01:19:23.425


Робот и Фрэнк скачать торрент







Скачать Робот и Фрэнк через торрент https://pic1.kartinco.top/images/21/qv3867sq8n.png Скачать, смотреть онлайн Робот и Фрэнк бесплантно в хорошем качестве Описание: Фильм о трогательной дружбе старика и робота. История заключается в том, что пожилой мужчина, Фрэнк, в прошлом, кстати, ... 10 10 1
Info! Золотая раздача, скачанное не засчитывается.
Торрент: Зарегистрирован [2013-03-06 13:45] · скачан: 165 раз
Статус: √ проверено
Размер: 9.27 GB
Как cкачать? Как скачать Робот и Фрэнк через торрент | UTorrent

% Раздел Тема Автор DL S | L
Фильмы 2012 [ 1.46 GB ] Робот и Фрэнк / Robot & Frank | | BDRip-AVC MVO закадровый МАКС1 Скачать
1 | 0
Фильмы 2012 [ 1.44 GB ] Робот и Фрэнк / Robot & Frank | MVO | BDRip, MVO bogyn Скачать
1 | 0
Фильмы 2012 [ 1.34 GB ] Робот и Фрэнк / Robot & Frank | MVO | DVDRip, MVO, лицензия Seedtank Скачать
1 | 0
Фильмы [HD 720p, 1080p] (Хороший звук DUB, MVO) [ 5.27 GB ] Робот и Фрэнк / Robot & Frank | MVO | 720p, MVO, лицензия [email protected] Скачать
1 | 0



Последний раз редактировалось: [email protected] (2013-03-06 18:09), всего редактировалось 1 раз

28-11-2019 20:33  


Отключить вcю реклaмy на сайте, в т.ч. и в плеере онлайн просмотра!

06-03-2013 16:54 Робот и Фрэнк Скачать торрент  

дайте скорости плиз



06-03-2013 19:10 Робот и Фрэнк Скачать торрент  

rus351

Настройки Своего клиента проверьте!



08-03-2013 16:17 Робот и Фрэнк Скачать торрент  

Звук DTS - не подходит для моего телека LG. Нужен AC3. Жаль. Не качаю....



    Дорогой пользователь! Огромная просьба, поблагодарите релизера, оцените раздачу и оставьте свои комментарий, если Вы скачали Робот и Фрэнк через торрент бесплатно!!
    Комментировать посты могут только пользователи прошедшие не сложную регистрацию
    Показать сообщения:    


    Робот и Фрэнк через торрент
    Скачать бесплатно Робот и Фрэнк
    Робот и Фрэнк скачать торрент
    Робот и Фрэнк смотреть онлайн
    Cкачать фильм Робот и Фрэнк бесплатно
    Робот и Фрэнк скачать торрент в хорошем качестве
    Робот и Фрэнк смотреть онлайн бесплатно в хорошем качестве
    Вы не можете начинать темы
    Вы не можете отвечать на сообщения
    Вы не можете редактировать свои сообщения
    Вы не можете удалять свои сообщения
    Вы не можете голосовать в опросах
    Вы не можете прикреплять файлы к сообщениям
    Вы можете скачивать файлы
    Робот и Фрэнк / Robot & Frank [2012 г., фантастика, драма, комедия, криминал, BDRip 1080p, MVO, лицензия] смотреть онлайн, скачать торрент picoco.icu