Мега распродажа FORZA HORIZON 4 ULTIMATE+ВСЕ DLC+ОНЛАЙН всего за 499р. 349 руб. (супер цена). Внимание количество ограничено!!!

Лицензия

30

iTunes

мы

iTunes

1

1 сезон

Чернобыль

1 сезон

Ральф против интернета

MVO

Покемон. Детектив Пикачу

8 сезон

Игра престолов

iTunes

1+1

ИГРА 18+

pack

ВАЖНО

!!Акция!!

Alien_RageХит недели

RePack

Resident Evil 21
pack

RePack

Metro:Exodus

!!Акция!!

Alien_Rage

RePack

fifa19

RePack

Assassins Creed: Odyssey

RePack

NEED FOR SPEED™ PAYBACK

3 сезон

9 сезон

Бесстыжие 9 сезон

Все сериалы

все сериалы на PB.wtf

RePack

FAR CRY 5
Ребята, катастрофически не хватает 2730р. для оплаты серверов за МАЙ (всвязи с блокировками трафик упал в 3 раза), 1-2р., выручайте.
  

Гарри Браун / Harry Brown (Дэниэл Барбер) [2009 г., триллер, драма, криминал, HDRip, MVO] [BBC Saint-Petersburg] pb.wtf

Гарри Браун через торрент pb.wtf

Размер: 1.46 GB | Добавлен: 6 лет 3 мес. назад | Торрент скачан:147 раз
Скачать  

07-03-2013 10:00 Гарри Браун Скачать торрент  


Гарри Браун / Harry Brown
«Every man has a breaking point.»

Год выпуска: 2009
Страна: Великобритания
Жанр: триллер, драма, криминал
Продолжительность: 01:42:46
Перевод: Профессиональный (многоголосый, закадровый) [BBC Saint-Petersburg]
Режиссер: Дэниэл Барбер
Продюссер: Кейт Белл, Мэттью Браун
Сценарий: Гари Янг

В ролях: Майкл Кейн, Эмили Мортимер, Айэйн Глен, Бен Дрю, Лиам Каннингэм, Джек О`Коннелл, Раза Джеффри, Дэвид Брэдли, Шон Харрис, Чарли Крид-Майлз

Описание: Он прожил свою жизнь, не боясь смотреть в лицо смерти. Но та смерть была в честном бою, с таким же противником, как и он сам. Старость изменила всё… даже смерть, которая приходит теперь исподтишка. В парке, во дворе дома, в подземном переходе.
Смерть жены и ранняя потеря дочери принесли в жизнь печаль, а зверское убийство друга ожесточило сердце. А всему виной то поколение, которое годится ему во внуки, которое кроваво и подло властвует в том маленьком мирке, где живёт Гарри Браун. Осознав, что терять больше нечего, старик Браун выходит на бой. И первой целью его становятся те, кто превращает детей в бессердечных убийц.
Качество: HDRip
Формат: AVI
Видео кодек: XviD
Аудио кодек: AC3
Видео: 720x304 (2.37:1), 23.976 fps, XviD build 50 ~1577 kbps avg, 0.30 bit/pixel
Аудио: 48 kHz, AC3 Dolby Digital, 3/2 (L,C,R,l,r) + LFE ch, ~448 kbps
Общее
Полное имя : L:Гарри Браун.avi
Формат : AVI
Формат/Информация : Audio Video Interleave
Размер файла : 1,46 Гбайт
Продолжительность : 1 ч. 42 м.
Общий поток : 2035 Кбит/сек
Программа кодирования : VirtualDubModRus 1.5.10.2 (build 2542/release)
Библиотека кодирования : VirtualDubMod build 2542/release

Видео
Идентификатор : 0
Формат : MPEG-4 Visual
Профиль формата : Advanced Simple@L5
Параметр BVOP формата : 1
Параметр QPel формата : Нет
Параметр GMC формата : Без точки перехода
Параметр матрицы формата : Выборочная
Идентификатор кодека : XVID
Идентификатор кодека/Подсказка : XviD
Продолжительность : 1 ч. 42 м.
Битрейт : 1578 Кбит/сек
Ширина : 720 пикселей
Высота : 304 пикселя
Соотношение сторон : 2,35:1
Частота кадров : 23,976 кадра/сек
Цветовое пространство : YUV
Субдискретизация насыщенности : 4:2:0
Битовая глубина : 8 бит
Тип развёртки : Прогрессивная
Метод сжатия : С потерями
Бит/(Пиксели*Кадры) : 0.301
Размер потока : 1,13 Гбайт (78%)
Библиотека кодирования : XviD 1.2.1 (UTC 2008-12-04)

Аудио
Идентификатор : 1
Формат : AC-3
Формат/Информация : Audio Coding 3
Расширение режима : CM (complete main)
Параметр Endianness формата : Big
Идентификатор кодека : 2000
Продолжительность : 1 ч. 42 м.
Вид битрейта : Постоянный
Битрейт : 448 Кбит/сек
Каналы : 6 каналов
Расположение каналов : Front: L C R, Side: L R, LFE
Частота : 48,0 КГц
Битовая глубина : 16 бит
Метод сжатия : С потерями
Размер потока : 329 Мбайт (22%)
Выравнивание : Разделение по промежуткам
Продолжительность промежутка : 42 мс. (1,00 видеокадр)
Время предзагрузки промежутка : 500 мс.

Скриншотыскриншот  скриншот  скриншот  скриншот  скриншот  скриншот  pb.wtf



Скачать Гарри Браун через торрент http://pic.kartinco.top/images/2/wv177lt3ng.jpg Скачать фильм Гарри Браун через торрент бесплантно в хорошем качестве Описание: Он прожил свою жизнь, не боясь смотреть в лицо смерти. Но та смерть была в честном бою, с таким же противником, как и он сам. ... 10 10 1
Info! Золотая раздача, скачанное не засчитывается.
Торрент: Зарегистрирован [2013-03-07 10:00] · скачан: 147 раз
Статус: √ проверено
Размер: 1.46 GB
Как cкачать? Как скачать Гарри Браун через торрент | qTorrent

% Раздел Тема Автор DL S | L
Фильмы 2009 [ 1.37 GB ] Гарри Браун / Harry Brown [2009 DVDRip] SD Скачать
1 | 0


>> Регистрируемся здесь <<






Отзывы и комментарии о схеме читаем и пишем здесь: ---> Отзывы и комментарии о схеме

Новые благодарочки в телеграм довольных пользователей:
скриншот   скриншот   скриншот   скриншот   скриншот

07-03-2013 11:29 Гарри Браун Скачать торрент  

Уже давненько смотрел этот фильмец, советую к просмотру, неплохой триллер о гопниках.pb.wtf



07-03-2013 13:42 Гарри Браун Скачать торрент  

Хрень-трень-брень..pb.wtf



    Дорогой пользователь! Огромная просьба, поблагодарите релизера, оцените раздачу и оставьте свои комментарий, если Вы скачали Гарри Браун через торрент бесплатно! Внесите свою лепту в развитие PiratBit!
    Комментировать посты могут только пользователи прошедшие не сложную регистрацию
    Показать сообщения:    

    Гарри Браун через торрент
    Скачать бесплатно Гарри Браун
    Гарри Браун скачать торрент
    Гарри Браун смотреть онлайн
    Cкачать фильм Гарри Браун бесплатно
    Гарри Браун скачать торрент в хорошем качестве
    Гарри Браун смотреть онлайн бесплатно в хорошем качестве


    Вы не можете начинать темы
    Вы не можете отвечать на сообщения
    Вы не можете редактировать свои сообщения
    Вы не можете удалять свои сообщения
    Вы не можете голосовать в опросах
    Вы не можете прикреплять файлы к сообщениям
    Вы можете скачивать файлы