Достать ножи: Стеклянная луковица

MVO

Добыча

Дубляж

Уэнсдэй

1 сезон

Тор

Дубляж

13 клиническая

1 сезон

Жестокая ночь

MVO

Одни из нас

1 сезон

Deluxe

pack

Рекомендуем

30

Пиратка

ВАЖНО

ВАЖНО

Ghostwire

Пиратка

jed

RePack

nioh2

RePack

RDR2

RePack

NEED FOR SPEED™ PAYBACK

RePack

скачать торрент

Кинопоиск HD

Острые козырьки 6 сезон

6 сезон

FAR CRY 6

RePack

скачать торрент

Лицензия

скачать торрент

MVO

1

1 сезон

скачать торрент

1 сезон

скачать торрент

Лицензия

  

Робот и Фрэнк / Robot & Frank (Джейк Шрейер) [2012 г., фантастика, драма, комедия, криминал, BDRip, MVO]

Робот и Фрэнк через торрент pb.wtf

Размер: 1.44 GB | Добавлен: 9 лет назад | Торрент скачан:425 раз
Смотреть онлайн | Скачать | Поддержите нас   

08-03-2013 11:28 Робот и Фрэнк Скачать торрент  

Робот и Фрэнк / Robot & Frank
«Дружба не имеет выключателя.»

Год выпуска: 2012
Страна: США
Жанр: фантастика, драма, комедия, криминал
Продолжительность: 01:29:00
Перевод: Профессиональный многоголосый

Режиссер: Джейк Шрейер
Продюссер: Лэнс Экорд, Джеки Келман Бисби, Сэм Бисби
Сценарий: Кристофер Д. Форд

Премьера в мире: 20 января 2012

В ролях: Фрэнк Ланджелла, Джеймс Мэрсден, Лив Тайлер, Сьюзен Сарандон, Питер Сарсгаард, Джереми Стронг, Дарио Бароссо, Бонни Бентли, Ана Гастейер, Рэйчел Ма

Описание: Фильм о трогательной дружбе старика и робота. История заключается в том, что пожилой мужчина, Фрэнк, в прошлом, кстати, вор-взломщик, живет в одиночестве. Его уже взрослые дети далеко, и чтобы хоть как-то помочь стареющему отцу, у которого начинает развиваться болезнь Альцгеймера, сын дарит Фрэнку робота-компаньона. Действие фильма происходит в не очень далеком будущем, роботы в домашнем хозяйстве — вполне нормальное явление. Поскольку Фрэнк считает себя человеком самостоятельным и не желает, чтобы за ним кто-то или что-то присматривало, он с опаской относится к подаренному роботу.

Качество: BDRip (Исходник Blu-Ray Remux (1080p))
Формат: AVI
Видео кодек: XviD
Аудио кодек: AC3
Видео: 720х304, 23,976 fps, 1856 kbps, 0.354 bit/pixel
Аудио#1: 48 kHz, AC3 5.1, 448.00 kbps / Профессиональный (многоголосый закадровый)
&
Общее
Полное имя : E:Фильмы МRobot.&.Frank.2012.BDRip.avi
Формат : AVI
Формат/Информация : Audio Video Interleave
Размер файла : 1,44 Гбайт
Продолжительность : 1 ч. 29 м.
Общий поток : 2313 Кбит/сек
Программа кодирования : VirtualDubModRus 1.5.10.2 (build 2542/release)
Библиотека кодирования : VirtualDubMod build 2542/release

Видео
Идентификатор : 0
Формат : MPEG-4 Visual
Профиль формата : Advanced [email protected]
Параметр BVOP формата : 1
Параметр QPel формата : Нет
Параметр GMC формата : Без точки перехода
Параметр матрицы формата : Выборочная
Режим смешивания : Сжатый битовый поток
Идентификатор кодека : XVID
Идентификатор кодека/Подсказка : XviD
Продолжительность : 1 ч. 29 м.
Битрейт : 1856 Кбит/сек
Ширина : 720 пикселей
Высота : 304 пикселя
Соотношение сторон : 2,35:1
Частота кадров : 23,976 кадра/сек
Цветовое пространство : YUV
Субдискретизация насыщенности : 4:2:0
Битовая глубина : 8 бит
Тип развёртки : Прогрессивная
Метод сжатия : С потерями
Бит/(Пиксели*Кадры) : 0.354
Размер потока : 1,15 Гбайт (80%)
Библиотека кодирования : XviD 65

Аудио
Идентификатор : 1
Формат : AC-3
Формат/Информация : Audio Coding 3
Расширение режима : CM (complete main)
Параметр Endianness формата : Big
Идентификатор кодека : 2000
Продолжительность : 1 ч. 29 м.
Вид битрейта : Постоянный
Битрейт : 448 Кбит/сек
Каналы : 6 каналов
Расположение каналов : Front: L C R, Side: L R, LFE
Частота : 48,0 КГц
Битовая глубина : 16 бит
Метод сжатия : С потерями
Размер потока : 285 Мбайт (19%)
Выравнивание : Разделение по промежуткам
Продолжительность промежутка : 42 мс. (1,00 видеокадр)
Время предзагрузки промежутка : 500 мс.
Заголовок : Профессиональный (многоголосый закадровый)


Робот и Фрэнк скачать торрент





Скачать Робот и Фрэнк через торрент http://i53.fastpic.ru/big/2013/0308/4f/b919233eec809523c2c88ba1344e9c4f.png Скачать, смотреть онлайн Робот и Фрэнк бесплантно в хорошем качестве Описание: Фильм о трогательной дружбе старика и робота. История заключается в том, что пожилой мужчина, Фрэнк, в прошлом, кстати, ... 10 10 10
Info! Золотая раздача, скачанное не засчитывается.
Торрент: Зарегистрирован [2013-03-08 11:28] · скачан: 425 раз
Статус: √ проверено
Размер: 1.44 GB
Как cкачать? Как скачать Робот и Фрэнк через торрент | UTorrent

% Раздел Тема Автор DL S | L
Фильмы 2012 [ 1.46 GB ] Робот и Фрэнк / Robot & Frank | | BDRip-AVC MVO закадровый МАКС1 Скачать
1 | 0
Фильмы 2012 [ 1.34 GB ] Робот и Фрэнк / Robot & Frank | MVO | DVDRip, MVO, лицензия Seedtank Скачать
1 | 0
Фильмы [HD 720p, 1080p] (Хороший звук DUB, MVO) [ 9.27 GB ] Робот и Фрэнк / Robot & Frank | MVO | 1080p, MVO, лицензия [email protected] Скачать
1 | 0
Фильмы [HD 720p, 1080p] (Хороший звук DUB, MVO) [ 5.27 GB ] Робот и Фрэнк / Robot & Frank | MVO | 720p, MVO, лицензия [email protected] Скачать
1 | 0

28-11-2019 20:33  


Отключить вcю реклaмy на сайте, в т.ч. и в плеере онлайн просмотра!

13-04-2013 08:34 Робот и Фрэнк Скачать торрент  

Спасибо



21-04-2013 15:35 Робот и Фрэнк Скачать торрент  

Спасибо



    Дорогой пользователь! Огромная просьба, поблагодарите релизера, оцените раздачу и оставьте свои комментарий, если Вы скачали Робот и Фрэнк через торрент бесплатно!!
    Комментировать посты могут только пользователи прошедшие не сложную регистрацию
    Показать сообщения:    


    Робот и Фрэнк через торрент
    Скачать бесплатно Робот и Фрэнк
    Робот и Фрэнк скачать торрент
    Робот и Фрэнк смотреть онлайн
    Cкачать фильм Робот и Фрэнк бесплатно
    Робот и Фрэнк скачать торрент в хорошем качестве
    Робот и Фрэнк смотреть онлайн бесплатно в хорошем качестве
    Вы не можете начинать темы
    Вы не можете отвечать на сообщения
    Вы не можете редактировать свои сообщения
    Вы не можете удалять свои сообщения
    Вы не можете голосовать в опросах
    Вы не можете прикреплять файлы к сообщениям
    Вы можете скачивать файлы
    Робот и Фрэнк / Robot & Frank [2012 г., фантастика, драма, комедия, криминал, BDRip, MVO] смотреть онлайн, скачать торрент picoco.icu