2 сезон

iTunes

MVO

1

2 сезон

iTunes

iTunes

1 сезон

RePack

30

Ultimate

ВАЖНО

ИГРА 18+

pack

RePack

MK11
pack

Легкие деньги

RePack

jed

RePack

fifa19

RePack

RDR2

RePack

NEED FOR SPEED™ PAYBACK

4 сезон

9 сезон

Бесстыжие 9 сезон

Все сериалы

все сериалы на PB.wtf

RePack

FAR CRY 5

Anonymous, добрый вечер, мы не успеваем собрать деньги на оплату серверов за декабрь и январь, помогите нам пожалуйста в это трудное время. В качестве благодарности мы отключим Вам всю рекламу на сайте (укажите свой ник в строку Ваше имя)!

×
  
Magnet ссылка

Cirque du Soleil: Сказочный мир в 3D / Cirque du Soleil: Worlds Away (Эндрю Адамсон) [2012 г., фэнтези, BDRip 3D 1080p]Горизонтальная анаморфная стереопара pb.wtf

Cirque du Soleil: Сказочный мир в 3D через торрент pb.wtf

Раздают: 4 [ 0 KB/s ]
Размер: 9.11 GB | Добавлен: 7 лет 10 мес. назад | Торрент скачан:720 раз
Скачать  

09-03-2013 06:57 Cirque du Soleil: Сказочный мир в 3D Скачать торрент  

Cirque du Soleil: Сказочный мир в 3D / Cirque du Soleil: Worlds Away

Год выпуска: 2012
Страна: США
Жанр: фэнтези
Продолжительность: 01:31:12
Перевод: Не требуется

Режиссер: Эндрю Адамсон
Продюссер: Эндрю Адамсон, Мартин Болдук, Арон Уорнер
Сценарий: Эндрю Адамсон

Мировой рейтинг IMDB 6.40 (1 498)


В ролях: Эрика Линц, Игорь Зарипов, Лутс Халбхюбнер, Джон Кларк, Даллас Барнетт, Таня Дрюери, Сара Хуболт, Аскья Мэйбери, Дэмиен Гордон, Зэк Бриклэнд, Нина Александрова, Александр Груздев

Описание: Удивительная история двух влюбленных, которых разлучила судьба, по мотивам лучших шоу Cirque du Soleil. Им придется пройти через многое, чтобы снова быть вместе...

Формат 3D: Half SideBySide (Горизонтальная анаморфная стереопара)

Качество: BDRip 1080p
Формат: MKV
Видео кодек: H.26x
Аудио кодек: DTS
Видео: AVC, 12,5 Mбит/сек, 1920x1080, 23,976 кадра/сек
Аудио#1: DTS, 1509 Кбит/сек, 6 каналов, 48,0 КГц
Общее
Уникальный идентификатор : 176381338462979589007781201047539913154 (0x84B1CF652F1A5B76B146483565A391C2)
Полное имя : D:ProbaCirque.Du.Soleil.Worlds.Away.3D.2012.1080p.BluRay.Half-SBS.x264-Public3Dcirque.du.soleil.worlds.away.3D.2012.1080p.bluray.half-sbs.x264-public3d.mkv
Формат : Matroska
Версия формата : Version 4 / Version 2
Размер файла : 9,11 Гбайт
Продолжительность : 1 ч. 31 м.
Общий поток : 14,3 Мбит/сек
Дата кодирования : UTC 2013-03-08 12:22:01
Программа кодирования : mkvmerge v6.1.0 ('Old Devil') built on Mar 2 2013 14:32:37
Библиотека кодирования : libebml v1.3.0 + libmatroska v1.4.0

Видео
Идентификатор : 1
Формат : AVC
Формат/Информация : Advanced Video Codec
Профиль формата : High@L4.1
Параметр CABAC формата : Да
Параметр ReFrames формата : 2 кадра
Идентификатор кодека : V_MPEG4/ISO/AVC
Продолжительность : 1 ч. 31 м.
Битрейт : 12,5 Мбит/сек
Ширина : 1920 пикселей
Высота : 1080 пикселей
Соотношение сторон : 16:9
Режим частоты кадров : Постоянный
Частота кадров : 23,976 кадра/сек
Цветовое пространство : YUV
Субдискретизация насыщенности : 4:2:0
Битовая глубина : 8 бит
Тип развёртки : Прогрессивная
Бит/(Пиксели*Кадры) : 0.252
Размер потока : 7,97 Гбайт (87%)
Библиотека кодирования : x264 core
Язык : English
Default : Да
Forced : Нет
Основные цвета : BT.709
Характеристики трансфера : BT.709
Коэффициенты матрицы : BT.709

Аудио
Идентификатор : 2
Формат : DTS
Формат/Информация : Digital Theater Systems
Режим : 16
Параметр Endianness формата : Big
Идентификатор кодека : A_DTS
Продолжительность : 1 ч. 31 м.
Вид битрейта : Постоянный
Битрейт : 1509 Кбит/сек
Каналы : 6 каналов
Расположение каналов : Front: L C R, Side: L R, LFE
Частота : 48,0 КГц
Битовая глубина : 24 бит
Метод сжатия : С потерями
Размер потока : 984 Мбайт (11%)
Язык : English
Default : Да
Forced : Нет

Меню
00:00:00.000 : en:00:00:00.000
00:07:01.921 : en:00:07:01.921
00:14:47.678 : en:00:14:47.678
00:18:59.138 : en:00:18:59.138
00:28:03.473 : en:00:28:03.473
00:37:52.187 : en:00:37:52.187
00:44:06.602 : en:00:44:06.602
00:46:47.263 : en:00:46:47.263
00:51:06.563 : en:00:51:06.563
00:55:44.758 : en:00:55:44.758
00:58:59.953 : en:00:58:59.953
01:03:59.836 : en:01:03:59.836
01:11:15.229 : en:01:11:15.229
01:20:49.845 : en:01:20:49.845


Cirque du Soleil: Сказочный мир в 3D скачать торрент


pb.wtf



Скачать Cirque du Soleil: Сказочный мир в 3D через торрент http://pic.kartinco.top/images/2/rah6iax5h6.jpg Скачать фильм Cirque du Soleil: Сказочный мир в 3D через торрент бесплантно в хорошем качестве Описание: Удивительная история двух влюбленных, которых разлучила судьба, по мотивам лучших шоу Cirque du Soleil. Им придется пройти через ... 10 10 8
Info! Золотая раздача, скачанное не засчитывается.
Торрент: Зарегистрирован [2013-03-09 06:57] · скачан: 720 раз
Статус: √ проверено
Размер: 9.11 GB
Как cкачать? Как скачать Cirque du Soleil: Сказочный мир в 3D через торрент | UTorrent

28-11-2019 20:33  

Отключить всю рекламу на сайте

09-03-2013 07:39 Cirque du Soleil: Сказочный мир в 3D Скачать торрент  

Говно, а не фильм, чуть не уснул в кинотеатре...pb.wtf



09-03-2013 07:44 Cirque du Soleil: Сказочный мир в 3D Скачать торрент  

mon131 писал(а):

<ЦЕНЗУРА>, а не фильм, чуть не уснул в кинотеатре...

а ты думал на боевик пришел, как всегда цирк солнца - несколько нудновато(ну можно сказать по другому - не спеша), но очень красивоpb.wtf



11-03-2013 16:47 Cirque du Soleil: Сказочный мир в 3D Скачать торрент  

Дайте звук АС3!!! молю....pb.wtf



12-03-2013 04:49 Cirque du Soleil: Сказочный мир в 3D Скачать торрент  

мольбы услышаны.. интернет послал мне popcorn mkv audio converter!!! теперь звук ас3, буду смареть на телеке.pb.wtf



    Дорогой пользователь! Огромная просьба, поблагодарите релизера, оцените раздачу и оставьте свои комментарий, если Вы скачали Cirque du Soleil: Сказочный мир в 3D через торрент бесплатно! Внесите свою лепту в развитие PiratBit!
    Комментировать посты могут только пользователи прошедшие не сложную регистрацию
    Показать сообщения:    

    Cirque du Soleil: Сказочный мир в 3D через торрент
    Скачать бесплатно Cirque du Soleil: Сказочный мир в 3D
    Cirque du Soleil: Сказочный мир в 3D скачать торрент
    Cirque du Soleil: Сказочный мир в 3D смотреть онлайн
    Cкачать фильм Cirque du Soleil: Сказочный мир в 3D бесплатно
    Cirque du Soleil: Сказочный мир в 3D скачать торрент в хорошем качестве
    Cirque du Soleil: Сказочный мир в 3D смотреть онлайн бесплатно в хорошем качестве


    Вы не можете начинать темы
    Вы не можете отвечать на сообщения
    Вы не можете редактировать свои сообщения
    Вы не можете удалять свои сообщения
    Вы не можете голосовать в опросах
    Вы не можете прикреплять файлы к сообщениям
    Вы можете скачивать файлы