Присоединяйтесь к нам в Telegram!, здесь всегда актуальный адрес сайта, оперативная поддержка и многое другое!!

>

5.9

iTunes

7.4

iTunes

9.4

1 сезон

1

7.4

2 сезон

7.2

iTunes

7.3

1 сезон

13

6.1

iTunes

8.3

GOG

30

ULTIMATE

pack

9.9

Лицензия

ВАЖНО

ИГРА 18+

pack

7.3

RePack

MK11

7.7

RePack

jed

7.8

RePack

fifa19

8.5

RePack

RDR2

RePack

NEED FOR SPEED™ PAYBACK

5 сезон

9 сезон

Бесстыжие 9 сезон

Все сериалы

все сериалы на PB.wtf

RePack

FAR CRY 5

Anonymous, добрый вечер, мы катастрофически не успеваем собрать деньги на оплату серверов, помогите нам пожалуйста 5,10,15р., для нас важна любая помощь . В качестве благодарности мы отключим Вам всю рекламу на сайте (укажите свой ник в строку Ваше имя)!

×
  
Magnet ссылка

Enigma - MCMXC a.D (The Complete Album) (2003) DVDRip / Enigma - MCMXC a.D (The Complete Album) (2003) DVDRip [2003 г., Видеоклипы, DVDRip] pb.wtf

Enigma - MCMXC a.D через торрент pb.wtf

Размер: 1.44 GB | Добавлен: 8 лет 8 мес. назад | Торрент скачан:312 раз
Смотреть онлайн Enigma - MCMXC a.D | Скачать    Ребята, помогите собрать деньги на оплату серверов!!!

09-03-2013 09:14 Enigma - MCMXC a.D Скачать торрент  

Enigma - MCMXC a.D. (The Complete Album)

Год выпуска: 2003
Жанр: Видеоклипы
Продолжительность: 00:40:15 + 00:16:28 + 00:15:24

TrackList::

I. The Voice Of Enigma
II. Principles Of Lust
A: Sadeness
B: Find Love
C: Sadeness (Reprise)
III. Callas Went Away
IV. Mea Culpa
V. The Voice & The Snake
VI. Knocking On Forbidden Doors
VII. Back To The Rivers Of Belief
A: Way To Eternity
B: Hallelujah
C: The Rivers Of Belief

Full lenght video :

01. Sadeness Part I
02. Mea Culpa Part II
03. Principles Of Lust
04. The Rivers Of Belief

Описание: Переиздание полной видеоверсии дебютного альбома Enigma - "MCMXC a.D.
Релиз также включает полные версии видео : Sadeness, Mea Culpa, Principles Of Lust и The Rivers of Belief.
16-минутное видео интервью с М. Крету ( язык : Eng , титры отсутствуют )

Качество: DVDRip
Формат: MKV
Видео кодек: MPEG-4 AVC/H.264
Аудио кодек: DTS
Видео: Битрейт видео: ~2000 Kbps Видеокодек: MPEG-4 AVC/H.264 Размер кадра: 720x536(544)
Аудио#1: DTS 48000Hz 6ch cbr 1510 Kbps Front: L C R, Side: L R, LFE





General
Complete name : ENIGMA MCMXC a.D. (The Complete Album)�1. ENIGMA MCMXC a.D.mkv
Format : Matroska
File size : 1 012 MiB
Duration : 40mn 15s
Overall bit rate : 3 514 Kbps
Movie name : ENIGMA MCMXC a.D
Encoded date : UTC 2011-02-23 17:25:52
Writing application : mkvmerge v4.4.0 ('Die Wiederkehr') сборка от Oct 31 2010 21:52:48
Writing library : libebml v1.0.0 + libmatroska v1.0.0

Video
ID : 1
Format : AVC
Format/Info : Advanced Video Codec
Format profile : High@L4.0
Format settings, CABAC : Yes
Format settings, ReFrames : 12 frames
Codec ID : V_MPEG4/ISO/AVC
Duration : 40mn 15s
Bit rate : 2 000 Kbps
Width : 720 pixels
Height : 536 pixels
Display aspect ratio : 4:3
Frame rate : 25.000 fps
Color space : YUV
Chroma subsampling : 4:2:0
Bit depth : 8 bits
Scan type : Progressive
Bits/(Pixel*Frame) : 0.207
Stream size : 557 MiB (55%)
Writing library : x264 core 79 r1342kMod e8501ef
Encoding settings : cabac=1 / ref=12 / deblock=1:-3:1 / analyse=0x3:0x133 / me=esa / subme=9 / psy=1 / psy_rd=1.0:0.1 / mixed_ref=1 / me_range=24 / chroma_me=1 / trellis=2 / 8x8dct=1 / cqm=0 / deadzone=21,11 / chroma_qp_offset=-3 / threads=6 / nr=0 / decimate=1 / mbaff=0 / constrained_intra=0 / bframes=12 / b_pyramid=0 / b_adapt=2 / b_bias=0 / direct=1 / wpredb=1 / wpredp=2 / keyint=250 / keyint_min=25 / scenecut=40 / rc_lookahead=50 / rc=abr / mbtree=1 / bitrate=2000 / ratetol=1.0 / qcomp=0.60 / qpmin=10 / qpmax=51 / qpstep=4 / ip_ratio=1.40 / aq=1:1.00
Language : English

Audio
ID : 2
Format : DTS
Format/Info : Digital Theater Systems
Codec ID : A_DTS
Duration : 40mn 15s
Bit rate mode : Constant
Bit rate : 1 510 Kbps
Channel(s) : 6 channels
Channel positions : Front: L C R, Side: L R, LFE
Sampling rate : 48.0 KHz
Bit depth : 24 bits
Compression mode : Lossy
Delay relative to video : 10ms
Stream size : 435 MiB (43%)
Language : English

Menu
00:00:00.000 : en:Chapter 1
00:02:19.160 : en:Chapter 2
00:14:04.960 : en:Chapter 3
00:18:33.800 : en:Chapter 4
00:23:33.760 : en:Chapter 5
00:25:14.840 : en:Chapter 6
00:29:33.720 : en:Chapter 7
General
Complete name : ENIGMA MCMXC a.D. (The Complete Album)�2. ENIGMA - Full lenght version.mkv
Format : Matroska
File size : 292 MiB
Duration : 16mn 28s
Overall bit rate : 2 475 Kbps
Writing application : Lavf52.101.0
Writing library : Lavf52.101.0

Video
ID : 1
Format : AVC
Format/Info : Advanced Video Codec
Format profile : High@L4.0
Format settings, CABAC : Yes
Format settings, ReFrames : 7 frames
Format settings, GOP : M=1, N=2
Codec ID : V_MPEG4/ISO/AVC
Duration : 16mn 28s
Bit rate : 2 000 Kbps
Width : 720 pixels
Height : 544 pixels
Display aspect ratio : 4:3
Frame rate mode : Variable
Frame rate : 25.000 fps
Color space : YUV
Chroma subsampling : 4:2:0
Bit depth : 8 bits
Scan type : Progressive
Bits/(Pixel*Frame) : 0.204
Stream size : 233 MiB (80%)
Writing library : x264 core 114 r1900
Encoding settings : cabac=1 / ref=8 / deblock=1:-2:0 / analyse=0x3:0x133 / me=esa / subme=9 / psy=1 / psy_rd=1.00:0.10 / mixed_ref=0 / me_range=24 / chroma_me=1 / trellis=2 / 8x8dct=1 / cqm=0 / deadzone=21,11 / fast_pskip=1 / chroma_qp_offset=-3 / threads=6 / sliced_threads=0 / nr=2 / decimate=1 / interlaced=0 / constrained_intra=0 / bframes=8 / b_pyramid=1 / b_adapt=1 / b_bias=0 / direct=3 / weightb=1 / open_gop=1 / weightp=2 / keyint=250 / keyint_min=25 / scenecut=40 / intra_refresh=0 / rc_lookahead=40 / rc=abr / mbtree=1 / bitrate=2000 / ratetol=1.0 / qcomp=0.60 / qpmin=10 / qpmax=51 / qpstep=4 / vbv_maxrate=24000 / vbv_bufsize=24000 / nal_hrd=none / ip_ratio=1.40 / aq=1:1.00
Language : English

Audio
ID : 2
Format : AC-3
Format/Info : Audio Coding 3
Mode extension : CM (complete main)
Codec ID : A_AC3
Duration : 16mn 28s
Bit rate mode : Constant
Bit rate : 448 Kbps
Channel(s) : 2 channels
Channel positions : Front: L R
Sampling rate : 48.0 KHz
Bit depth : 16 bits
Compression mode : Lossy
Stream size : 52.8 MiB (18%)
Language : English

Menu
00:00:00.000 : :
00:04:16.480 : :
00:08:26.600 : :
00:11:59.760 : :
General
Complete name :ENIGMA MCMXC a.D. (The Complete Album)�3. Michael Cretu - interview.mkv
Format : Matroska
File size : 170 MiB
Duration : 15mn 24s
Overall bit rate : 1 541 Kbps
Writing application : Lavf52.101.0
Writing library : Lavf52.101.0

Video
ID : 1
Format : AVC
Format/Info : Advanced Video Codec
Format profile : High@L3.2
Format settings, CABAC : Yes
Format settings, ReFrames : 8 frames
Format settings, GOP : M=2, N=4
Codec ID : V_MPEG4/ISO/AVC
Duration : 15mn 24s
Bit rate : 1 400 Kbps
Width : 720 pixels
Height : 544 pixels
Display aspect ratio : 4:3
Frame rate mode : Variable
Frame rate : 25.000 fps
Color space : YUV
Chroma subsampling : 4:2:0
Bit depth : 8 bits
Scan type : Progressive
Bits/(Pixel*Frame) : 0.143
Stream size : 149 MiB (88%)
Writing library : x264 core 114 r1900
Encoding settings : cabac=1 / ref=8 / deblock=1:-2:0 / analyse=0x3:0x133 / me=esa / subme=8 / psy=1 / psy_rd=1.00:0.10 / mixed_ref=0 / me_range=24 / chroma_me=1 / trellis=2 / 8x8dct=1 / cqm=0 / deadzone=21,11 / fast_pskip=1 / chroma_qp_offset=-3 / threads=6 / sliced_threads=0 / nr=3 / decimate=1 / interlaced=0 / constrained_intra=0 / bframes=6 / b_pyramid=0 / b_adapt=1 / b_bias=0 / direct=3 / weightb=1 / open_gop=0 / weightp=2 / keyint=250 / keyint_min=25 / scenecut=40 / intra_refresh=0 / rc_lookahead=40 / rc=abr / mbtree=1 / bitrate=1400 / ratetol=1.0 / qcomp=0.60 / qpmin=10 / qpmax=51 / qpstep=4 / vbv_maxrate=24000 / vbv_bufsize=24000 / nal_hrd=none / ip_ratio=1.40 / aq=1:1.00
Language : English / German

Audio
ID : 2
Format : AC-3
Format/Info : Audio Coding 3
Mode extension : CM (complete main)
Codec ID : A_AC3
Duration : 15mn 24s
Bit rate mode : Constant
Bit rate : 160 Kbps
Channel(s) : 2 channels
Channel positions : Front: L R
Sampling rate : 48.0 KHz
Bit depth : 16 bits
Compression mode : Lossy
Stream size : 17.6 MiB (10%)
Language : English

Menu
00:00:00.000 : :

pb.wtf



Скачать Enigma - MCMXC a.D через торрент https://pic1.kartinco.top/images/21/aman9b4i24.jpg Скачать, смотреть онлайн Enigma - MCMXC a.D бесплантно в хорошем качестве Описание: Переиздание полной видеоверсии дебютного альбома Enigma - "MCMXC a.D.Релиз также включает полные версии видео : Sadeness, Mea ... 10 10 15
Info! Золотая раздача, скачанное не засчитывается.
Торрент: Зарегистрирован [2013-03-09 09:14] · скачан: 312 раз
Статус: √ проверено
Размер: 1.44 GB
Как cкачать? Как скачать Enigma - MCMXC a.D через торрент | UTorrent

28-11-2019 20:33  

Отключить всю рекламу на сайте

    Дорогой пользователь! Огромная просьба, поблагодарите релизера, оцените раздачу и оставьте свои комментарий, если Вы скачали Enigma - MCMXC a.D через торрент бесплатно!
    Комментировать посты могут только пользователи прошедшие не сложную регистрацию
    Показать сообщения:    

    Enigma - MCMXC a.D через торрент
    Скачать бесплатно Enigma - MCMXC a.D
    Enigma - MCMXC a.D скачать торрент
    Enigma - MCMXC a.D смотреть онлайн
    Cкачать фильм Enigma - MCMXC a.D бесплатно
    Enigma - MCMXC a.D скачать торрент в хорошем качестве
    Enigma - MCMXC a.D смотреть онлайн бесплатно в хорошем качестве


    Вы не можете начинать темы
    Вы не можете отвечать на сообщения
    Вы не можете редактировать свои сообщения
    Вы не можете удалять свои сообщения
    Вы не можете голосовать в опросах
    Вы не можете прикреплять файлы к сообщениям
    Вы можете скачивать файлы