2 сезон

iTunes

MVO

1

2 сезон

iTunes

iTunes

1 сезон

RePack

30

Новинка

ВАЖНО

ИГРА 18+

pack

RePack

MK11
pack

Легкие деньги

RePack

jed

RePack

fifa19

RePack

RDR2

RePack

NEED FOR SPEED™ PAYBACK

4 сезон

9 сезон

Бесстыжие 9 сезон

Все сериалы

все сериалы на PB.wtf

RePack

FAR CRY 5

Anonymous, добрый вечер, мы не успеваем собрать деньги на оплату серверов за декабрь и январь, помогите нам пожалуйста в это трудное время. В качестве благодарности мы отключим Вам всю рекламу на сайте (укажите свой ник в строку Ваше имя)!

×
  
Magnet ссылка

Xoббит: Heжданнoе путeшecтвиe в 3Д / The Ноbbit: An Unеxресted Jоurnеу 3D (Питep Джeкcoн / Реtеr Jасksоn) [2012, Фэнтези, Приключения, BDrip, 1080p] OverUnder / Вертикальная стереопара pb.wtf

Xoббит: Heжданнoе путeшecтвиe в 3Д через торрент pb.wtf

Размер: 21.07 GB | Добавлен: 7 лет 9 мес. назад | Торрент скачан:567 раз
Скачать  

09-03-2013 10:17 Xoббит: Heжданнoе путeшecтвиe в 3Д Скачать торрент  

Xoббит: Heжданнoе путeшecтвиe / The Ноbbit: An Unеxресted Jоurnеу

Год выпуска: 2012
Страна: США, Новая Зеландия
Студия: Warner Bros. Pictures, New Line Cinema, Metro-Goldwyn-Mayer, WingNut Films
Жанр: Фэнтези, Приключения
Продолжительность: 02:49:41

Перевод: Профессиональный дублированный
Русские субтитры: есть
Режиссер на русском: Питep Джeкcoн
Режиссер на английском: Реtеr Jасksоn

В ролях: Мартин Фриман, Йен МакКеллен, Ричард Армитидж, Джеймс Несбитт, Кен Стотт, Кейт Бланшетт, Элайджа Вуд, Хьюго Уивинг, Кристофер Ли, Энди Серкис

Описание: Фильм повествует о путешествии Бильбо Бэггинса, который пускается в грандиозный поход, целью которого является отвоевание утраченного королевства гномов Эребор у зловещего дракона Смога. Совершенно неожиданно с хоббитом налаживает контакт волшебник Гэндальф Серый. Так Бильбо находит себя, присоединяясь к компании тринадцати гномов, возглавляемых легендарным воином, Торином Дубощитом. Их путешествие проляжет через Дикий Край, через предательские земли, населенные гоблинами и орками, смертоносными варгами и гигантскими пауками, народом, меняющим шкуры, и волшебниками. И хотя их цель находится на Востоке среди пустошей Одинокой Горы, сначала им придется выбраться из туннелей гоблинов, где Бильбо встретит существо, которое изменит его жизнь навсегда… Голлума. Здесь, один на один с Голлумом, на берегу подземного озера, непритязательный Бильбо Бэггинс обнаружит не только скрытые в глубине души хитрость и отвагу, которые удивят даже его, но и завладеет «прелестным» колечком Голлума, которое обладает нежданными и полезными свойствами… Простое золотое кольцо, c которым связана судьба всего Средиземья, нитями, о которых Бильбо не мог даже вообразить.

Качество: BDrip
Контейнер: MKV
Формат 3D: OverUnder / Вертикальная стереопара
Порядок ракурсов: левый ракурс первый
Видео кодек: x264
Аудио кодек: AC3
Видео: High@L5.0 /AVC / 23,976 fps / 1920х1600 / 15,9 Mbps
Аудио: Русский / AC3 / 48 KHz / 5.1 ch / 448 Kbps
Аудио 2:Украинский / AC3 / 48 KHz / 5.1 ch / 448 Kbps
Аудио 3: Английский / AC3 / 48 KHz / 5.1 ch / 640 Kbps
Субтитры: русские форсированные на речь орков и эльфов (отдельным файлом)

ВНИМАНИЕ ! На встроенных ТВ-плейерах работать не будет!!!

Железные плееры на которых воспроизводятся полные стереопары:Popcorn C-200 , Dune HD Smart D1 , Dune HD DUO , Dune HD Smart H1 , Dune HD Smart B1 , Dune HD Max , Dune HD TV-303D , Dune HD Base 3D



9.04.2013 - Релиз обновлён - русская дорога (чистый звук) заменена на лицензию , добавлена украинская дорога.
Желающие, скачайте заново торрент-файл.
Общее
Уникальный идентификатор : 220726050360436586547062310280149514577 (0xA60E4A7E4A845EE3AD4039E5DB16B951)
Полное имя : F:видеоThe Ноbbit An Unеxресted Jоurnеу.Rip by SeRoGa00The Ноbbit An Unеxресted Jоurnеу.Rip by SeRoGa00.mkv
Формат : Matroska
Версия формата : Version 2
Размер файла : 21,1 Гбайт
Продолжительность : 2 ч. 49 м.
Общий поток : 17,8 Мбит/сек
Дата кодирования : UTC 2013-04-08 15:48:27
Программа кодирования : mkvmerge v3.4.0 ('Rapunzel') сборка от May 15 2010 09:38:20
Библиотека кодирования : libebml v0.8.0 + libmatroska v0.9.0

Видео
Идентификатор : 1
Формат : AVC
Формат/Информация : Advanced Video Codec
Профиль формата : High@L5.0
Параметр CABAC формата : Да
Параметр ReFrames формата : 4 кадра
Идентификатор кодека : V_MPEG4/ISO/AVC
Продолжительность : 2 ч. 49 м.
Битрейт : 15,9 Мбит/сек
Ширина : 1920 пикселей
Высота : 1600 пикселей
Соотношение сторон : 1,200
Частота кадров : 23,976 кадра/сек
Цветовое пространство : YUV
Субдискретизация насыщенности : 4:2:0
Битовая глубина : 8 бит
Тип развёртки : Прогрессивная
Бит/(Пиксели*Кадры) : 0.216
Размер потока : 18,8 Гбайт (89%)
Заголовок : Rip by SeRoGa00
Библиотека кодирования : x264 core 128 r2216kMod 198a7ea
Настройки программы : cabac=1 / ref=4 / deblock=1:-3:-3 / analyse=0x3:0x113 / me=umh / subme=9 / psy=1 / fade_compensate=0.00 / psy_rd=1.00:0.15 / mixed_ref=1 / me_range=16 / chroma_me=1 / trellis=2 / 8x8dct=1 / cqm=0 / deadzone=21,11 / fast_pskip=1 / chroma_qp_offset=-3 / threads=9 / lookahead_threads=1 / sliced_threads=0 / nr=0 / decimate=1 / interlaced=0 / bluray_compat=0 / constrained_intra=0 / bframes=6 / b_pyramid=2 / b_adapt=2 / b_bias=0 / direct=3 / weightb=1 / open_gop=0 / weightp=2 / keyint=250 / keyint_min=23 / scenecut=40 / intra_refresh=0 / rc_lookahead=60 / rc=crf / mbtree=1 / crf=18.0000 / qcomp=0.60 / qpmin=10 / qpmax=69 / qpstep=4 / vbv_maxrate=40000 / vbv_bufsize=40000 / crf_max=0.0 / nal_hrd=none / ip_ratio=1.40 / aq=1:1.00

Аудио #1
Идентификатор : 2
Формат : AC-3
Формат/Информация : Audio Coding 3
Расширение режима : CM (complete main)
Идентификатор кодека : A_AC3
Продолжительность : 2 ч. 49 м.
Вид битрейта : Постоянный
Битрейт : 448 Кбит/сек
Каналы : 6 каналов
Расположение каналов : Front: L C R, Side: L R, LFE
Частота : 48,0 КГц
Битовая глубина : 16 бит
Метод сжатия : С потерями
Размер потока : 543 Мбайт (3%)
Язык : Russian

Аудио #2
Идентификатор : 3
Формат : AC-3
Формат/Информация : Audio Coding 3
Расширение режима : CM (complete main)
Идентификатор кодека : A_AC3
Продолжительность : 2 ч. 49 м.
Вид битрейта : Постоянный
Битрейт : 448 Кбит/сек
Каналы : 6 каналов
Расположение каналов : Front: L C R, Side: L R, LFE
Частота : 48,0 КГц
Битовая глубина : 16 бит
Метод сжатия : С потерями
Размер потока : 543 Мбайт (3%)
Язык : Ukrainian

Аудио #3
Идентификатор : 4
Формат : AC-3
Формат/Информация : Audio Coding 3
Расширение режима : CM (complete main)
Идентификатор кодека : A_AC3
Продолжительность : 2 ч. 49 м.
Вид битрейта : Постоянный
Битрейт : 640 Кбит/сек
Каналы : 6 каналов
Расположение каналов : Front: L C R, Side: L R, LFE
Частота : 48,0 КГц
Битовая глубина : 16 бит
Метод сжатия : С потерями
Размер потока : 776 Мбайт (4%)
Язык : English
pb.wtf



Скачать Xoббит: Heжданнoе путeшecтвиe в 3Д через торрент http://i54.fastpic.ru/big/2013/0309/43/9c02d516de3427caf80ae1ddd2c16d43.jpg Скачать фильм Xoббит: Heжданнoе путeшecтвиe в 3Д через торрент бесплантно в хорошем качестве Описание: Фильм повествует о путешествии Бильбо Бэггинса, который пускается в грандиозный поход, целью которого является отвоевание ... 9.5 10 18
Info! Золотая раздача, скачанное не засчитывается.
Торрент: Зарегистрирован [2013-04-09 07:48] · скачан: 567 раз
Статус: √ проверено
Размер: 21.07 GB
Как cкачать? Как скачать Xoббит: Heжданнoе путeшecтвиe в 3Д через торрент | UTorrent



Последний раз редактировалось: serega768 (2013-04-09 07:52), всего редактировалось 4 раз(а)

28-11-2019 20:33  

Отключить всю рекламу на сайте

11-03-2013 07:21 Xoббит: Heжданнoе путeшecтвиe в 3Д Скачать торрент  

КАК ТУТ ДЕЛА ОБСТОЯТ СО ЗВУКОМ ?pb.wtf



17-03-2013 02:58 Xoббит: Heжданнoе путeшecтвиe в 3Д Скачать торрент  

LED-телевизор 42" LG 42LM620T, 3D, Full HD на этом телевизоре можно смтореть в 3D?pb.wtf



26-03-2013 12:01 Xoббит: Heжданнoе путeшecтвиe в 3Д Скачать торрент  

sergei.ivas писал(а):

LED-телевизор 42" LG 42LM620T, 3D, Full HD на этом телевизоре можно смтореть в 3D?

Почитай в описании:
ВНИМАНИЕ ! На встроенных ТВ-плейерах работать не будет!!!

То-есть нуна качнуть софт (плейер) на твою Лыжуpb.wtf



01-04-2013 19:03 Xoббит: Heжданнoе путeшecтвиe в 3Д Скачать торрент  

такая же лыжа, вот хотел уточнить какой плеер нуна ?посоветуйте кто знаетpb.wtf



02-04-2013 02:10 Xoббит: Heжданнoе путeшecтвиe в 3Д Скачать торрент  

messer181 писал(а):

такая же лыжа, вот хотел уточнить какой плеер нуна ?посоветуйте кто знает

Нужен шнур HDMI , Stereoscopic Player или KMPlayer , и комп который это все потянетpb.wtf



09-04-2013 07:54 Xoббит: Heжданнoе путeшecтвиe в 3Д Скачать торрент  

9.04.2013 - Релиз обновлён - русская дорога (чистый звук) заменена на лицензию , добавлена украинская дорога.
Желающие, скачайте заново торрент-файл.
pb.wtf



08-07-2013 09:02 Xoббит: Heжданнoе путeшecтвиe в 3Д Скачать торрент  

Вот тоже купил себе 3D лыж, читаю ваши коменты и не пойму, на него что можно плеер установить? С компа то в принципе и так идёт.pb.wtf



25-03-2014 11:45 Xoббит: Heжданнoе путeшecтвиe в 3Д Скачать торрент  

Ребят извените за тупой вопрос наверное. У меня 3Д монитор на 27 - 1920-1080, будет ли лучше показывать 3Д с разрешением 1920х1600 в плане глубины и качества, (чем смотреть я знаю) или дальше моего разрешения нечего прыгать? Спасибо за любой ответ.pb.wtf



    Дорогой пользователь! Огромная просьба, поблагодарите релизера, оцените раздачу и оставьте свои комментарий, если Вы скачали Xoббит: Heжданнoе путeшecтвиe в 3Д через торрент бесплатно! Внесите свою лепту в развитие PiratBit!
    Комментировать посты могут только пользователи прошедшие не сложную регистрацию
    Показать сообщения:    

    Xoббит: Heжданнoе путeшecтвиe в 3Д через торрент
    Скачать бесплатно Xoббит: Heжданнoе путeшecтвиe в 3Д
    Xoббит: Heжданнoе путeшecтвиe в 3Д скачать торрент
    Xoббит: Heжданнoе путeшecтвиe в 3Д смотреть онлайн
    Cкачать фильм Xoббит: Heжданнoе путeшecтвиe в 3Д бесплатно
    Xoббит: Heжданнoе путeшecтвиe в 3Д скачать торрент в хорошем качестве
    Xoббит: Heжданнoе путeшecтвиe в 3Д смотреть онлайн бесплатно в хорошем качестве


    Вы не можете начинать темы
    Вы не можете отвечать на сообщения
    Вы не можете редактировать свои сообщения
    Вы не можете удалять свои сообщения
    Вы не можете голосовать в опросах
    Вы не можете прикреплять файлы к сообщениям
    Вы можете скачивать файлы