Достать ножи: Стеклянная луковица

MVO

Добыча

Дубляж

Уэнсдэй

1 сезон

Тор

Дубляж

13 клиническая

1 сезон

Жестокая ночь

MVO

Одни из нас

1 сезон

Deluxe

pack

Рекомендуем

30

Пиратка

ВАЖНО

ВАЖНО

Ghostwire

Пиратка

jed

RePack

nioh2

RePack

RDR2

RePack

NEED FOR SPEED™ PAYBACK

RePack

скачать торрент

Кинопоиск HD

Острые козырьки 6 сезон

6 сезон

FAR CRY 6

RePack

скачать торрент

Лицензия

скачать торрент

MVO

1

1 сезон

скачать торрент

1 сезон

скачать торрент

Лицензия

  

Смертельная гонка 3: Ад / Death Race: Inferno (Unrated) (Роэль Рейн) [2012 г., фантастика, боевик, триллер, BDRip-AVC, Дубляж, лицензия]

Смертельная гонка 3: Ад через торрент pb.wtf

Размер: 1.92 GB | Добавлен: 9 лет назад | Торрент скачан:206 раз
Смотреть онлайн | Скачать | Поддержите нас   

09-03-2013 15:00 Смертельная гонка 3: Ад Скачать торрент  

Смертельная гонка 3: Ад / Death Race: Inferno (Unrated)

Год выпуска: 2012
Страна: США
Жанр: фантастика, боевик, триллер
Продолжительность: 01:45:12
Перевод: Дубляж, Лицензия
Субтитры: Русские Forced (включены по умолчанию) Русские Full

Режиссер: Роэль Рейн
Продюссер: Пол У. С. Андерсон, Джереми Болт, Майк Эллиот
Сценарий: Тони Гиглио, Пол У. С. Андерсон, Роберт Том

Мировой рейтинг IMDB 5.40 (5 610)


В ролях: Люк Госс, Винг Реймз, Дэнни Трехо, Дюгрэй Скотт, Фредерик Колер, Танит Феникс, Робин Шоу, Хлуби Мбоя, Роксана Хейуорд, Барт Фаш, Александр Новиков, Пётр Иващенко

Описание: Осужденный полицейский-убийца Карл Лукас, он же Франкенштейн, суперзвезда жестоких тюремных гонок на выживание, известных как Смертельная Гонка. Только одна победа отделяет его от получения свободы для себя и своей команды. Однако теперь Лукас оказался в совершенно новом, ещё более порочном соревновании. Сражаясь против властных закулисных сил и безжалостных противников, Лукас борется, чтобы спасти себя и свою команду в адской гонке в пустыне Калахари и получить свободу.

Качество: BDRip-AVC
Формат: MKV
Видео кодек: H.264
Аудио кодек: AC3
Видео: 1024 x 576 (1.778) at 23.976 fps AVC at 2153 Кбит/сек
Аудио: AC-3 at 448 Кбит/сек 6 каналов, 48,0 КГц
Релиз от: =Sудья=
Общее
Уникальный идентификатор : 235184718403577040571125456316433763444 (0xB0EEEDDDA9F62D699D25DCD4A5E90C74)
Полное имя : D:ФильмыDeath.Race.3.Inferno.2013.Unrated.Extended.Cut.BDRip-AVC.=Sудья=.mkv
Формат : Matroska
Версия формата : Version 4 / Version 2
Размер файла : 1,92 Гбайт
Продолжительность : 1 ч. 45 м.
Общий поток : 2616 Кбит/сек
Название фильма : Death Race 3.Inferno (2013) [Unrated Extended Cut]=Sудья=
Дата кодирования : UTC 2010-02-22 21:41:31
Программа кодирования : mkvmerge v5.9.0 ('On The Loose') built on Dec 9 2012 15:37:01
Библиотека кодирования : libebml v1.3.0 + libmatroska v1.4.0

Видео
Идентификатор : 1
Формат : AVC
Формат/Информация : Advanced Video Codec
Профиль формата : [email protected]
Параметр CABAC формата : Нет
Параметр ReFrames формата : 1 кадр
Режим смешивания : Header stripping
Идентификатор кодека : V_MPEG4/ISO/AVC
Продолжительность : 1 ч. 45 м.
Битрейт : 2153 Кбит/сек
Ширина : 1024 пикселя
Высота : 576 пикселей
Соотношение сторон : 16:9
Частота кадров : 23,976 кадра/сек
Цветовое пространство : YUV
Субдискретизация насыщенности : 4:2:0
Битовая глубина : 8 бит
Тип развёртки : Прогрессивная
Бит/(Пиксели*Кадры) : 0.152
Размер потока : 1,56 Гбайт (81%)
Заголовок : Death Race 3.Inferno (2013) [Unrated Extended Cut]
Библиотека кодирования : x264 core 125 r2200bm 999b753
Настройки программы : cabac=0 / ref=1 / deblock=0:0:0 / analyse=0:0 / me=dia / subme=0 / psy=1 / psy_rd=1.00:0.00 / mixed_ref=0 / me_range=16 / chroma_me=1 / trellis=0 / 8x8dct=0 / cqm=0 / deadzone=21,11 / fast_pskip=1 / chroma_qp_offset=0 / threads=3 / lookahead_threads=1 / sliced_threads=0 / nr=0 / decimate=1 / interlaced=0 / bluray_compat=0 / constrained_intra=0 / bframes=0 / weightp=0 / keyint=250 / keyint_min=23 / scenecut=0 / intra_refresh=0 / rc=abr / mbtree=0 / bitrate=2153 / ratetol=1.0 / qcomp=0.60 / qpmin=0 / qpmax=69 / qpstep=4 / ip_ratio=1.40 / aq=0
Язык : English
Default : Да
Forced : Нет

Аудио
Идентификатор : 2
Формат : AC-3
Формат/Информация : Audio Coding 3
Расширение режима : CM (complete main)
Режим смешивания : Header stripping
Идентификатор кодека : A_AC3
Продолжительность : 1 ч. 45 м.
Вид битрейта : Постоянный
Битрейт : 448 Кбит/сек
Каналы : 6 каналов
Расположение каналов : Front: L C R, Side: L R, LFE
Частота : 48,0 КГц
Битовая глубина : 16 бит
Метод сжатия : С потерями
Размер потока : 337 Мбайт (17%)
Заголовок : AC3 / 5.1 ch / 448 kbps / Русский дубляж BD EUR
Язык : Russian
Default : Да
Forced : Да

Текст #1
Идентификатор : 3
Формат : UTF-8
Идентификатор кодека : S_TEXT/UTF8
Идентификатор кодека/Информация : UTF-8 Plain Text
Заголовок : Forced
Язык : Russian
Default : Да
Forced : Нет

Текст #2
Идентификатор : 4
Формат : UTF-8
Идентификатор кодека : S_TEXT/UTF8
Идентификатор кодека/Информация : UTF-8 Plain Text
Заголовок : Full
Язык : Russian
Default : Нет
Forced : Нет

Смертельная гонка 3: Ад скачать торрент





Скачать Смертельная гонка 3: Ад через торрент https://pic1.kartinco.top/images/21/gm8bfczs24.jpg Скачать, смотреть онлайн Смертельная гонка 3: Ад бесплантно в хорошем качестве Описание: Осужденный полицейский-убийца Карл Лукас, он же Франкенштейн, суперзвезда жестоких тюремных гонок на выживание, известных как ... 9.1 10 7
Info! Золотая раздача, скачанное не засчитывается.
Торрент: Зарегистрирован [2013-03-09 15:00] · скачан: 206 раз
Статус: √ проверено
Размер: 1.92 GB
Как cкачать? Как скачать Смертельная гонка 3: Ад через торрент | UTorrent

% Раздел Тема Автор DL S | L
Фильмы (DVD фильмы) [ 7.2 GB ] Смертельная гонка 3: Ад / Death Race: Inferno | | 2013, боевик, триллер, криминал, DVD9 voovaz Скачать
1 | 0

28-11-2019 20:33  


Отключить вcю реклaмy на сайте, в т.ч. и в плеере онлайн просмотра!

09-03-2013 15:10 Смертельная гонка 3: Ад Скачать торрент  

а семпл можно...



09-03-2013 15:33 Смертельная гонка 3: Ад Скачать торрент  

udginfess писал(а):

а семпл можно...

Скачать СЭМПЛ



09-03-2013 15:50 Смертельная гонка 3: Ад Скачать торрент  

залейте все три части смертельная гонка плиз



09-03-2013 16:28 Смертельная гонка 3: Ад Скачать торрент  

ГАЙК писал(а):

залейте все три части смертельная гонка плиз

Смертельная гонка / Death Race
Смертельная гонка 2: Франкенштейн жив / Death Race 2



09-03-2013 17:16 Смертельная гонка 3: Ад Скачать торрент  

Переводчик пусть определиться уже АД или Инферно))))



    Дорогой пользователь! Огромная просьба, поблагодарите релизера, оцените раздачу и оставьте свои комментарий, если Вы скачали Смертельная гонка 3: Ад через торрент бесплатно!!
    Комментировать посты могут только пользователи прошедшие не сложную регистрацию
    Показать сообщения:    


    Смертельная гонка 3: Ад через торрент
    Скачать бесплатно Смертельная гонка 3: Ад
    Смертельная гонка 3: Ад скачать торрент
    Смертельная гонка 3: Ад смотреть онлайн
    Cкачать фильм Смертельная гонка 3: Ад бесплатно
    Смертельная гонка 3: Ад скачать торрент в хорошем качестве
    Смертельная гонка 3: Ад смотреть онлайн бесплатно в хорошем качестве
    Вы не можете начинать темы
    Вы не можете отвечать на сообщения
    Вы не можете редактировать свои сообщения
    Вы не можете удалять свои сообщения
    Вы не можете голосовать в опросах
    Вы не можете прикреплять файлы к сообщениям
    Вы можете скачивать файлы
    Смертельная гонка 3: Ад / Death Race: Inferno [2012 г., фантастика, боевик, триллер, BDRip-AVC, Дубляж, лицензия] смотреть онлайн, скачать торрент picoco.icu