MEGA SALE -50% FORZA HORIZON 4 ULTIMATE+ВСЕ DLC+ОНЛАЙН всего за 599р. 299 руб. (супер цена). Внимание количество ограничено!!!

iTunes

1+1

iTunes

мы

iTunes

1

iTunes

Чернобыль

iTunes

Ральф против интернета

Лицензия

ПШазам

Лицензия

Игра престолов

Лицензия

30
pack

ВАЖНО

!!Акция!!

Alien_RageХит недели

RePack

Resident Evil 21

ИГРА 18+

pack

RePack

Metro:Exodus

!!Акция!!

Alien_Rage

RePack

fifa19

RePack

Assassins Creed: Odyssey

RePack

NEED FOR SPEED™ PAYBACK

3 сезон

9 сезон

Бесстыжие 9 сезон

Все сериалы

все сериалы на PB.wtf

RePack

FAR CRY 5
Ребята, катастрофически не хватает 7730р. для оплаты серверов за АВГУСТ (всвязи с блокировками трафик упал в 3 раза), 1-2р., выручайте.
  

Папаши / Les Comperes (Франсис Вебер / Francis Veber) [1983 г., Комедия, HDTVRip] DUB pb.wtf

Папаши через торрент pb.wtf

Размер: 1.46 GB | Добавлен: 6 лет 6 мес. назад | Торрент скачан:100 раз
Скачать  

11-03-2013 06:43 Папаши Скачать торрент  

Папаши / Les Comperes
Год выпуска: 1983 г.
Страна: Франция
Жанр: Комедия
Продолжительность: 01:25:33
Перевод: Профессиональный (дублированный)
Cубтитры: нет
Режиссер: Франсис Вебер / Francis Veber
В ролях: Жерар Депардье, Пьер Ришар, Анни Дюпре, Жак Франц, Жан-Жак Шеффер, Мишель Омон, Морис Барье, Ролан Бланш, Стефан Бьерри, Филипп Хорсан
Описание: Молодой юноша сбегает из дома. Его мать решает обратиться за помощью к двум своим давним бывшим любовникам (Ришар и Депардье), чтобы они нашли и вернули юношу домой. Чтобы придать больше энтузиазма их поискам, она говорит каждому из любовников, что это его сын, которого она скрывала от него много лет (хотя это неправда). Один из любовников — застенчивый учитель (Ришар), другой — крутой журналист (Депардье). Вскоре они узнают друг о друге и вынужденно объединяют усилия. После множества приключений и забавных ситуаций, они находят своего «сына» и все втроем становятся друзьями, хотя так и не понимают сути подвоха.
Качество видео: HDTVRip
Формат видео: AVI
Видео кодек: XviD
Аудио кодек: AC3
Видео: 720x432 (1.67:1), 25 fps, XviD build 64 ~2235 kbps avg, 0.29 bit/pixel
Аудио: 48 kHz, AC3 Dolby Digital, 2/0 (L,R) ch, ~192 kbps

D:Les Comperes_1983.HDTVRip.1.45 by dexter lex.avi
General
Complete name : D:Les Comperes_1983.HDTVRip.1.45 by dexter lex.avi
Format : AVI
Format/Info : Audio Video Interleave
File size : 1.46 GiB
Duration : 1h 25mn
Overall bit rate : 2 436 Kbps
Writing application : VirtualDubMod 1.5.10.3 | www.virtualdub-fr.org || (build 2550/release)
Writing library : VirtualDubMod build 2550/release
Video #0
ID : 0
Format : MPEG-4 Visual
Format profile : Advanced Simple@L5
Format settings, BVOP : 1
Format settings, QPel : No
Format settings, GMC : No warppoints
Format settings, Matrix : Custom
Codec ID : XVID
Codec ID/Hint : XviD
Duration : 1h 25mn
Bit rate : 2 235 Kbps
Width : 720 pixels
Height : 432 pixels
Display aspect ratio : 1.67:1
Frame rate : 25.000 fps
Color space : YUV
Chroma subsampling : 4:2:0
Bit depth : 8 bits
Scan type : Progressive
Compression mode : Lossy
Bits/(Pixel*Frame) : 0.287
Stream size : 1.34 GiB (92%)
Writing library : XviD 64
Audio #1
ID : 1
Format : AC-3
Format/Info : Audio Coding 3
Mode extension : CM (complete main)
Format settings, Endianness : Big
Codec ID : 2000
Duration : 1h 25mn
Bit rate mode : Constant
Bit rate : 192 Kbps
Channel(s) : 2 channels
Channel positions : Front: L R
Sampling rate : 48.0 KHz
Bit depth : 16 bits
Compression mode : Lossy
Stream size : 117 MiB (8%)
Alignment : Split accross interleaves
Interleave, duration : 40 ms (1.00 video frame)
Interleave, preload duration : 500 ms
http://multi-up.com/833915
pb.wtf



Скачать Папаши через торрент http://i51.fastpic.ru/big/2013/0221/18/923964ce8ea2bf869cb1b4cfba29b218.jpg Скачать фильм Папаши через торрент бесплантно в хорошем качестве Описание: Молодой юноша сбегает из дома. Его мать решает обратиться за помощью к двум своим давним бывшим любовникам (Ришар и Депардье), ... 9 10 1
Info! Золотая раздача, скачанное не засчитывается.
Торрент: Зарегистрирован [2013-03-11 06:43] · скачан: 100 раз
Статус: √ проверено
Размер: 1.46 GB
Как cкачать? Как скачать Папаши через торрент | qTorrent

% Раздел Тема Автор DL S | L
Фильмы до 2000 г. [ 744 MB ] Папаши / Les Comperes [1983 HDTVRip] DUB dexter lex Скачать
1 | 0


>> Регистрируемся здесь <<






Отзывы и комментарии о схеме читаем и пишем здесь: ---> Отзывы и комментарии о схеме

Новые благодарочки в телеграм довольных пользователей:
скриншот   скриншот   скриншот   скриншот   скриншот
    Дорогой пользователь! Огромная просьба, поблагодарите релизера, оцените раздачу и оставьте свои комментарий, если Вы скачали Папаши через торрент бесплатно! Внесите свою лепту в развитие PiratBit!
    Комментировать посты могут только пользователи прошедшие не сложную регистрацию
    Показать сообщения:    

    Папаши через торрент
    Скачать бесплатно Папаши
    Папаши скачать торрент
    Папаши смотреть онлайн
    Cкачать фильм Папаши бесплатно
    Папаши скачать торрент в хорошем качестве
    Папаши смотреть онлайн бесплатно в хорошем качестве


    Вы не можете начинать темы
    Вы не можете отвечать на сообщения
    Вы не можете редактировать свои сообщения
    Вы не можете удалять свои сообщения
    Вы не можете голосовать в опросах
    Вы не можете прикреплять файлы к сообщениям
    Вы можете скачивать файлы