Ссылка на приватное зеркало нашего сайта всего за 1$. Внимание количество ограничено!!!

2 сезон

iTunes

1 сезон

1

iTunes

iTunes

iTunes

1 сезон

RePack

30

ИГРА 18+

pack

ВАЖНО

!!Акция!!

Alien_RageХит недели

RePack

MK11
pack

Забери бонус

RePack

jed

!!Акция!!

Alien_Rage

RePack

fifa19

RePack

Assassins Creed: Odyssey

RePack

NEED FOR SPEED™ PAYBACK

4 сезон

9 сезон

Бесстыжие 9 сезон

Все сериалы

все сериалы на PB.wtf

RePack

FAR CRY 5
  

Ральф / Wreck-It Ralph (Рич Мур / Rich Moore) [2012 г., мультфильм, комедия, семейный, HDRip] DUB pb.wtf

Ральф через торрент pb.wtf

Размер: 746 MB | Добавлен: 7 лет 7 мес. назад | Торрент скачан:643 раза
Скачать  

11-03-2013 06:46 Ральф Скачать торрент  

Ральф / Wreck-It Ralph
Год выпуска: 2012 г.
Страна: США
Жанр: мультфильм, комедия, семейный
Продолжительность: 01:41:13
Перевод: Профессиональный (дублированный) | Лицензия
Cубтитры: нет
Режиссер: Рич Мур / Rich Moore
В ролях: Джон Си Райли, Джек МакБрайер, Сара Силверман, Джейн Линч, Алан Тьюдик, Минди Калинг, Джо Ло Труглио, Эд О’Нил, Деннис Хейсбёрт, Эди МакКлёрг
Описание: Ральф — второстепенный персонаж восьмибитной компьютерной игры, и ему надоело находиться в тени главного героя, мастера на все руки Феликса, который всегда появляется, чтобы «исправить» ситуацию! После десяти лет добросовестной работы в роли злодея, в течение которых все похвалы выпадали на долю Феликса, Ральф больше не хочет быть плохим.

Он решает отправиться в путешествие по аркадным играм разных жанров, чтобы доказать всем, что и он тоже может быть героем. На своем пути Ральф встречает героев разных игр — хладнокровную сержанта Калхун из игры Hero’s Duty, оберегающую планету от нашествия инопланетных захватчиков, и сладкую на вид, но острую на язычок Сластену фон Дю, чье существование в гоночном симуляторе Sugar Rush внезапно оказывается под угрозой. Наконец-то Ральфу выпадает шанс показать, что он умеет не только разрушать!
Качество видео: HDRip
Формат видео: AVI
Видео кодек: XviD
Аудио кодек: MP3
Видео: 656x272 (2.41:1), 23.976 fps, XviD build 50 ~893 kbps avg, 0.21 bit/pixel
Аудио: 48 kHz, MPEG Layer 3, 2 ch, ~128.00 kbps avg

D:Ralf.2012.D.HDRip . by dexter lex.avi
General
Complete name : D:Ralf.2012.D.HDRip . by dexter lex.avi
Format : AVI
Format/Info : Audio Video Interleave
File size : 746 MiB
Duration : 1h 41mn
Overall bit rate : 1 030 Kbps
Writing application : VirtualDubMod 1.5.10.3 | www.virtualdub-fr.org || (build 2550/release)
Writing library : VirtualDubMod build 2550/release
Video #0
ID : 0
Format : MPEG-4 Visual
Format profile : Advanced Simple@L5
Format settings, BVOP : 1
Format settings, QPel : No
Format settings, GMC : No warppoints
Format settings, Matrix : Custom
Codec ID : XVID
Codec ID/Hint : XviD
Duration : 1h 41mn
Bit rate : 893 Kbps
Width : 656 pixels
Height : 272 pixels
Display aspect ratio : 2.40:1
Frame rate : 23.976 fps
Color space : YUV
Chroma subsampling : 4:2:0
Bit depth : 8 bits
Scan type : Progressive
Compression mode : Lossy
Bits/(Pixel*Frame) : 0.209
Stream size : 646 MiB (87%)
Writing library : XviD 1.2.1 (UTC 2008-12-04)
Audio #1
ID : 1
Format : MPEG Audio
Format version : Version 1
Format profile : Layer 3
Codec ID : 55
Codec ID/Hint : MP3
Duration : 1h 41mn
Bit rate mode : Constant
Bit rate : 128 Kbps
Channel(s) : 2 channels
Sampling rate : 48.0 KHz
Compression mode : Lossy
Stream size : 92.7 MiB (12%)
Alignment : Aligned on interleaves
Interleave, duration : 42 ms (1.00 video frame)
Interleave, preload duration : 504 ms
Writing library : LAME3.99r
Encoding settings : -m s -V 4 -q 2 -lowpass 17 -b 128
http://multi-up.com/836293
pb.wtf



Скачать Ральф через торрент http://i52.fastpic.ru/big/2013/0227/ad/a78f2f375784e4c2d717a4e78be140ad.jpg Скачать фильм Ральф через торрент бесплантно в хорошем качестве Описание: Ральф — второстепенный персонаж восьмибитной компьютерной игры, и ему надоело находиться в тени главного героя, мастера на все ... 9.3 10 11
Info! Золотая раздача, скачанное не засчитывается.
Торрент: Зарегистрирован [2013-03-11 06:46] · скачан: 643 раз
Статус: √ проверено
Размер: 746 MB
Как cкачать? Как скачать Ральф через торрент | qTorrent

% Раздел Тема Автор DL S | L
Ultra HD (UHD: 2K, 4K, 8K) [ 43.94 GB ] Ральф / Wreck-It Ralph [2012 Мультфильм UHD BDRemux 2160p] 2xAVO+DUB [] bober100 Скачать
1 | 0
Ultra HD (UHD: 2K, 4K, 8K) [ 45.08 GB ] Ральф / Wreck-It Ralph [2012 мультфильм UHD BDRemux 2160p] DUB + AVO [Ю. Сербин] sheker187 Скачать
1 | 0
Иностранные мультфильмы [ 3.46 GB ] Ральф / Wreck-It Ralph [2012 BDRip-AVC] [Локализованный видеоряд] + 2x[AVO] + Dub killermax2013 Скачать
1 | 0
Мультфильмы (48-60 fps) [ 3.76 GB ] Ральф / Wreck-It Ralph [2012 мультфильм BDRip 720p] [60 FPS] killermax2013 Скачать
3 | 0
Иностранные мультфильмы [ 1.46 GB ] Ральф / Wreck-It Ralph [2012 мультфильм HDRip DUB лицензия] oleg8 Скачать
1 | 0
3D Мультфильмы [ 3.57 GB ] Ральф в 3D / Wreck-It Ralph in 3D [2012 мультфильм BDRip-AVC DUB + Оригинал] Anaglyph red'cyan slaventi-69 Скачать
1 | 0
Зарубежные Мультфильмы (BDRip 1080p, 720p, Blu-ray, BD-Remux) [ 9.21 GB ] Ральф / Wreck-It Ralph [2012 мультфильм BDRip 1080p DUB + Оригинал+Sub 5 видов] Trava-HD Скачать
1 | 0

28-11-2019 20:33  

Отключить всю рекламу на сайте

    Дорогой пользователь! Огромная просьба, поблагодарите релизера, оцените раздачу и оставьте свои комментарий, если Вы скачали Ральф через торрент бесплатно! Внесите свою лепту в развитие PiratBit!
    Комментировать посты могут только пользователи прошедшие не сложную регистрацию
    Показать сообщения:    

    Ральф через торрент
    Скачать бесплатно Ральф
    Ральф скачать торрент
    Ральф смотреть онлайн
    Cкачать фильм Ральф бесплатно
    Ральф скачать торрент в хорошем качестве
    Ральф смотреть онлайн бесплатно в хорошем качестве


    Вы не можете начинать темы
    Вы не можете отвечать на сообщения
    Вы не можете редактировать свои сообщения
    Вы не можете удалять свои сообщения
    Вы не можете голосовать в опросах
    Вы не можете прикреплять файлы к сообщениям
    Вы можете скачивать файлы