Всегда рабочее зеркало без VPN и Proxy просто перед .vidak.icu напиши любое слово или цифру, Пример http://i8x6.vidak.icu

MVO

2 сезон

2 сезон

1

1 сезон

iTunes

2 сезон

13

1 сезон

Deluxe

pack

Рекомендуем

Пиратка

30

ВАЖНО

RePack

MK11

RePack

jed

RePack

fifa19

RePack

RDR2

RePack

NEED FOR SPEED™ PAYBACK

Кинопоиск HD

6 сезон

 Острые козырьки 6 сезон

Все сериалы

все сериалы на PB.wtf

RePack

FAR CRY 5

Anonymous, нам критически не хватает 5601 руб. на оплату серверов и переферии за Апрель, помоги нам пожалуйста, вся надежда только на тебя. В благодарность мы отключим тебе всю рекламу на сайте!

×
  
Magnet ссылка

Супердискотека 90-х, Москва (09.03.2013) [2013 г., концерт, SATRip] pb.wtf

Супердискотека 90-х, Москва через торрент pb.wtf

Размер: 3.02 GB | Добавлен: 9 лет 2 мес. назад | Торрент скачан:190 раз
Смотреть онлайн Супердискотека 90-х, Москва | Скачать    Ребята, помогите собрать деньги на оплату серверов!!!

11-03-2013 09:43 Супердискотека 90-х, Москва Скачать торрент  

Супердискотека 90-х, Москва (09.03.2013)

Год выпуска: 2013
Страна: Россия
Жанр: концерт
Продолжительность: 03:04:44
Перевод: Не требуется

Описание: СупердискотЭка 90-х - легендарный ретромегадэнс, собирающий ежегодно десятки тысяч человек в Санкт-Петербурге и Москве. Каждую СупердискотЭку 90-х в прямом эфире транслирует канал MTV, а в праздничные дни 1 января и 12 июня СупердискотЭку 90-х показывали по Первому каналу и ее смотрела вся Россия. СупердискотЭка 90-х возвращает в детство, когда мы обменивались на переменке вкладышами, вырывали странички с замечаниями из дневника, спешили домой рубиться в Сегу и Денди, а по вечерам всей семьей смотрели Санта-Барбару.
Это гораздо больше, чем просто концерт! Это грандиозное высокотехнологичное шоу и одновременно возвращение в мир 90-х - туда, где музыку слушали на кассетах.

Качество: SATRip
Формат: AVI
Видео кодек: DivX
Аудио кодек: MP3
Видео: 720 х 400, 25,000 кадров/сек, ~2200 Кбит/сек
Аудио#1: MP3 , 2ch., 128 Кбит/сек
01. Дискотека Авария - X.X.X.И.Р.Н.Р
02. Дискотека Авария - Яйца
03. Тотал - Бьет по глазам
04. Примьер министр - Два бриллианта
05. Найк Борзов - Маленькая лошадка
06. Лицей - Осень
07. Аркадий Укупник - Некогда не женюсь
08. Размер ROJECT - Ангел дня
09. Рок острова - Ничего нет говори
10. Саша Зверева - Дождик (Я иду по лужам)
11. Отпетые мошенники - Всяко разно
12. Отпетые мошенники - Люби меня люби
13. Наташа Королёва - Такси такси
14. Данко - Московская ночь
15. Ирина Салтыкова - Серые глаза
16. Олег Горшков ex. Мечтать - Летчик
17. Комбинация - Бухгалтер
18. Комбинация - Два кусочека колбаски
19. Олег Кваша - Зеленоглазое такси
20. Eiffel 65 - Blue (Da Ba Dee)
21. Динамит - Красивые слова
22. Вирус - Ручки
23. Борис Моисеев, Николай Трубач - Голубая луна
24. Алёна Апина - Лёха
25. Алёна Апина - Электричка
26. Юлия Волкова ( ex. T.A.T.U. ) - Я сошла с ума
27. Юлия Волкова ( ex. T.A.T.U. ) - Нас не догонят
28. На-На - Фаина
29. Настя Петрик - Мы будем помнить ( на англ.)
30. Оксана Почепа ( ex. Акула ) - Кислотный Диджей
31. FIVE - We will rock you
32. FIVE - Don't wanna let yuo go/keep on moving/mix
33. FIVE - If ya getting down
34. Руки Вверх - 18 мне уже
35. Руки Вверх - Алёшка
36. Руки Вверх - Крошка моя

Формат : AVI
Формат/Информация : Audio Video Interleave
Профиль формата : OpenDML
Размер файла : 3,02 Гбайт
Продолжительность : 3 ч. 4 м.
Общий поток : 2339 Кбит/сек
Программа кодирования : VirtualDubMod 1.5.10.2 (build 2540/release)
Библиотека кодирования : VirtualDub build 29808/release

Видео
Идентификатор : 0
Формат : MPEG-4 Visual
Параметр BVOP формата : 1
Параметр QPel формата : Нет
Параметр GMC формата : Без точки перехода
Параметр матрицы формата : Default (H.263)
Режим смешивания : Сжатый битовый поток
Идентификатор кодека : DX50
Идентификатор кодека/Подсказка : DivX 5
Продолжительность : 3 ч. 4 м.
Битрейт : 2201 Кбит/сек
Ширина : 720 пикселей
Высота : 400 пикселей
Соотношение сторон : 16:9
Частота кадров : 25,000 кадров/сек
Цветовое пространство : YUV
Субдискретизация насыщенности : 4:2:0
Битовая глубина : 8 бит
Тип развёртки : Прогрессивная
Метод сжатия : С потерями
Бит/(Пиксели*Кадры) : 0.306
Размер потока : 2,84 Гбайт (94%)
Библиотека кодирования : DivX 6.8.5 (UTC 2009-08-20)

Аудио
Идентификатор : 1
Формат : MPEG Audio
Версия формата : Version 1
Профиль формата : Layer 3
Режим : Joint stereo
Расширение режима : MS Stereo
Идентификатор кодека : 55
Идентификатор кодека/Подсказка : MP3
Продолжительность : 3 ч. 4 м.
Вид битрейта : Постоянный
Битрейт : 128 Кбит/сек
Каналы : 2 канала
Частота : 48,0 КГц
Метод сжатия : С потерями
Размер потока : 169 Мбайт (5%)
Выравнивание : Соединение по промежуткам
Продолжительность промежутка : 40 мс. (1,00 видеокадр)
Время предзагрузки промежутка : 504 мс.

"Скриншоты"

скриншот   скриншот   скриншот   скриншот   скриншот   скриншот  

pb.wtf



Скачать Супердискотека 90-х, Москва через торрент https://pic1.kartinco.top/images/21/myxbq6jinx.jpg Скачать, смотреть онлайн Супердискотека 90-х, Москва бесплантно в хорошем качестве Описание: СупердискотЭка 90-х - легендарный ретромегадэнс, собирающий ежегодно десятки тысяч человек в Санкт-Петербурге и Москве. Каждую ... 7.5 10 6
Info! Золотая раздача, скачанное не засчитывается.
Торрент: Зарегистрирован [2013-03-11 09:43] · скачан: 190 раз
Статус: √ проверено
Размер: 3.02 GB
Как cкачать? Как скачать Супердискотека 90-х, Москва через торрент | UTorrent

% Раздел Тема Автор DL S | L
Концерты [ 2.21 GB ] Супердискотека 90-х Москва [2013 концерт SATRip] 1mpulse2k20 Скачать
1 | 0


Последний раз редактировалось: 1mpulse2k20 (2013-03-11 09:55), всего редактировалось 3 раз(а)

28-11-2019 20:33  

Отключить всю рекламу на сайте

11-03-2013 09:44 Супердискотека 90-х, Москва Скачать торрент  

Тут качество немного получше, чем тут -> Супердискотека 90-х, Москва pb.wtf



    Дорогой пользователь! Огромная просьба, поблагодарите релизера, оцените раздачу и оставьте свои комментарий, если Вы скачали Супердискотека 90-х, Москва через торрент бесплатно!
    Комментировать посты могут только пользователи прошедшие не сложную регистрацию
    Показать сообщения:    

    Супердискотека 90-х, Москва через торрент
    Скачать бесплатно Супердискотека 90-х, Москва
    Супердискотека 90-х, Москва скачать торрент
    Супердискотека 90-х, Москва смотреть онлайн
    Cкачать фильм Супердискотека 90-х, Москва бесплатно
    Супердискотека 90-х, Москва скачать торрент в хорошем качестве
    Супердискотека 90-х, Москва смотреть онлайн бесплатно в хорошем качестве


    Вы не можете начинать темы
    Вы не можете отвечать на сообщения
    Вы не можете редактировать свои сообщения
    Вы не можете удалять свои сообщения
    Вы не можете голосовать в опросах
    Вы не можете прикреплять файлы к сообщениям
    Вы можете скачивать файлы