Ссылка на приватное зеркало нашего сайта всего за 1$. Внимание количество ограничено!!!

2 сезон

iTunes

1 сезон

1

iTunes

iTunes

iTunes

1 сезон

RePack

30

ИГРА 18+

pack

ВАЖНО

!!Акция!!

Alien_RageХит недели

RePack

MK11
pack

Забери бонус

RePack

jed

!!Акция!!

Alien_Rage

RePack

fifa19

RePack

Assassins Creed: Odyssey

RePack

NEED FOR SPEED™ PAYBACK

4 сезон

9 сезон

Бесстыжие 9 сезон

Все сериалы

все сериалы на PB.wtf

RePack

FAR CRY 5
  

Доспехи Бога 3: Миссия Зодиак / Chinese Zodiac (Джеки Чан) [2012 г., Боевик, Комедия, Приключения, BDRip 720p] DUB |лицензия| pb.wtf

Доспехи Бога 3: Миссия Зодиак через торрент pb.wtf

Размер: 4.91 GB | Добавлен: 7 лет 7 мес. назад | Торрент скачан:1308 раз
Скачать  

11-03-2013 21:08 Доспехи Бога 3: Миссия Зодиак Скачать торрент  

Год выпуска: 2012
Страна: Гонконг Китай
Жанр: Боевик, Комедия, Приключения
Продолжительность: 02:02:56
Перевод: Профессиональный (полное дублирование) |Лицензия|
Субтитры: Английские

Режиссер: Джеки Чан
Продюсер: Джеки Чан, Эсмонд Рен, Барби Танг
Сценарий: Джеки Чан, Фрэнки Чан, Эдвард Танг

В ролях: Джеки Чан, Квон Сан У, Ляо Фань, Синтхун Яо, Чжан Ланьсинь, Лаура Вейссбеккер, Оливер Платт, Эмили Гуйо, Кэйтлин Дешель, Кенни Джи

Описание: Главный герой истории — работающий по всему миру охотник за сокровищами Джей Си по кличке Ястреб. Известный антиквар предлагает ему отыскать шесть редких статуэток в виде голов животных. В свое время эти бронзовые скульптуры входили в набор из 12-ти предметов, олицетворявших знаки зодиака. Фигурки украшали фонтан легендарного Летнего дворца на окраине Пекина. В 1860 году величественное сооружение было разграблено и разрушено англо-французскими войсками на исходе Второй опиумной войны, а статуэтки безвозвратно утеряны.
6.40 (3 209)

Качество: BDRip 720p
Формат: MKV
Видео кодек: x264
Аудио кодек: AC3
Видео: 1280x536, 24 fps, ~5105 kbps avg, 0.37 bit/pixel
Аудио: 48 kHz, AC3 Dolby Digital, 3/2 (L,C,R,l,r) + LFE ch, ~448 kbps

Общее
Уникальный идентификатор : 233316157650515011353093580910133540118 (0xAF870EB53ADFC808A074C7D31F087516)
Полное имя : D:торрентыchinese.zodiac.2012.720p.x264.mkv
Формат : Matroska
Версия формата : Version 2
Размер файла : 4,91 Гбайт
Продолжительность : 2 ч. 2 м.
Общий поток : 5712 Кбит/сек
Дата кодирования : UTC 2013-03-11 16:04:30
Программа кодирования : mkvmerge v3.4.0 ('Rapunzel') сборка от May 15 2010 09:38:20
Библиотека кодирования : libebml v0.8.0 + libmatroska v0.9.0

Видео
Идентификатор : 1
Формат : AVC
Формат/Информация : Advanced Video Codec
Профиль формата : High@L4.1
Параметр CABAC формата : Да
Параметр ReFrames формата : 5 кадров
Идентификатор кодека : V_MPEG4/ISO/AVC
Продолжительность : 2 ч. 2 м.
Битрейт : 5151 Кбит/сек
Номинальный битрейт : 5500 Кбит/сек
Ширина : 1280 пикселей
Высота : 536 пикселей
Соотношение сторон : 2,40:1
Частота кадров : 24,000 кадра/сек
Цветовое пространство : YUV
Субдискретизация насыщенности : 4:2:0
Битовая глубина : 8 бит
Тип развёртки : Прогрессивная
Бит/(Пиксели*Кадры) : 0.313
Размер потока : 4,42 Гбайт (90%)
Библиотека кодирования : x264 core 129 r2230 1cffe9f
Настройки программы : cabac=1 / ref=5 / deblock=1:-3:-3 / analyse=0x3:0x113 / me=umh / subme=7 / psy=1 / psy_rd=1.00:0.00 / mixed_ref=1 / me_range=16 / chroma_me=1 / trellis=1 / 8x8dct=1 / cqm=0 / deadzone=21,11 / fast_pskip=1 / chroma_qp_offset=-2 / threads=16 / lookahead_threads=2 / sliced_threads=0 / nr=0 / decimate=1 / interlaced=0 / bluray_compat=0 / constrained_intra=0 / bframes=3 / b_pyramid=2 / b_adapt=2 / b_bias=0 / direct=3 / weightb=1 / open_gop=0 / weightp=2 / keyint=240 / keyint_min=24 / scenecut=40 / intra_refresh=0 / rc_lookahead=50 / rc=abr / mbtree=1 / bitrate=5500 / ratetol=1.0 / qcomp=0.60 / qpmin=0 / qpmax=69 / qpstep=4 / ip_ratio=1.40 / aq=1:1.00
Язык : English
Default : Нет
Forced : Нет

Аудио
Идентификатор : 2
Формат : AC-3
Формат/Информация : Audio Coding 3
Расширение режима : CM (complete main)
Идентификатор кодека : A_AC3
Продолжительность : 2 ч. 2 м.
Вид битрейта : Постоянный
Битрейт : 448 Кбит/сек
Каналы : 6 каналов
Расположение каналов : Front: L C R, Side: L R, LFE
Частота : 48,0 КГц
Битовая глубина : 16 бит
Метод сжатия : С потерями
Размер потока : 394 Мбайт (8%)
Default : Да
Forced : Нет

Текст
Идентификатор : 3
Формат : VobSub
Режим смешивания : zlib
Идентификатор кодека : S_VOBSUB
Идентификатор кодека/Информация : The same subtitle format used on DVDs
Язык : English
Default : Нет
Forced : Нет


скриншот   скриншот   скриншот   скриншот   скриншот   скриншот   скриншот  
pb.wtf



Скачать Доспехи Бога 3: Миссия Зодиак через торрент http://pic.kartinco.top/images/2/qn4nrr41jq.png Скачать фильм Доспехи Бога 3: Миссия Зодиак через торрент бесплантно в хорошем качестве Описание: Главный герой истории — работающий по всему миру охотник за сокровищами Джей Си по кличке Ястреб. Известный антиквар предлагает ... 9.9 10 17
Info! Золотая раздача, скачанное не засчитывается.
Торрент: Зарегистрирован [2013-03-11 21:08] · скачан: 1 308 раз
Статус: √ проверено
Размер: 4.91 GB
Как cкачать? Как скачать Доспехи Бога 3: Миссия Зодиак через торрент | qTorrent

% Раздел Тема Автор DL S | L
Фильмы [HD 720p, 1080p] (Хороший звук DUB, MVO) [ 11.56 GB ] Доспехи Бога 3: Миссия Зодиак / Chinese Zodiac [2012 BDRip 1080p DUB лицензия] Userman4ik Скачать
1 | 0
3D Фильмы [ 16.83 GB ] Доспехи Бога 3: Миссия Зодиак / Chinese Zodiac [2012 BDRip 1080p DUB лицензия 3D Anamorph SideBySide] hd3D Скачать
1 | 0
Азиатские фильмы [ 1.45 GB ] Доспехи Бога 3: Миссия Зодиак / Chinese Zodiac [2012 HDRip DUB / лицензия] Mr. Freeman Скачать
1 | 0
Азиатские фильмы [ 2.05 GB ] Доспехи Бога 3: Миссия Зодиак / Chinese Zodiac [2012 HDRip DUB лицензия] 44OO Скачать
1 | 0
Азиатские фильмы [ 2.55 GB ] Доспехи Бога 3: Миссия Зодиак / Chinese Zodiac [2012 BDRip-AVC DUB + Оригинал лицензия] Sудья Скачать
1 | 0

28-11-2019 20:33  

Отключить всю рекламу на сайте

12-03-2013 04:08 Доспехи Бога 3: Миссия Зодиак Скачать торрент  

Куда делась оригинальная дорожка и сабы русские, удалены все заголовки.pb.wtf



12-03-2013 07:05 Доспехи Бога 3: Миссия Зодиак Скачать торрент  

джеки зюга чан жжет по полной пазитифф!!!pb.wtf



12-03-2013 19:22 Доспехи Бога 3: Миссия Зодиак Скачать торрент  

Посмотрим, фильм должен быть ГУД!pb.wtf



    Дорогой пользователь! Огромная просьба, поблагодарите релизера, оцените раздачу и оставьте свои комментарий, если Вы скачали Доспехи Бога 3: Миссия Зодиак через торрент бесплатно! Внесите свою лепту в развитие PiratBit!
    Комментировать посты могут только пользователи прошедшие не сложную регистрацию
    Показать сообщения:    

    Доспехи Бога 3: Миссия Зодиак через торрент
    Скачать бесплатно Доспехи Бога 3: Миссия Зодиак
    Доспехи Бога 3: Миссия Зодиак скачать торрент
    Доспехи Бога 3: Миссия Зодиак смотреть онлайн
    Cкачать фильм Доспехи Бога 3: Миссия Зодиак бесплатно
    Доспехи Бога 3: Миссия Зодиак скачать торрент в хорошем качестве
    Доспехи Бога 3: Миссия Зодиак смотреть онлайн бесплатно в хорошем качестве


    Вы не можете начинать темы
    Вы не можете отвечать на сообщения
    Вы не можете редактировать свои сообщения
    Вы не можете удалять свои сообщения
    Вы не можете голосовать в опросах
    Вы не можете прикреплять файлы к сообщениям
    Вы можете скачивать файлы