1 сезон

1 сезон

iTunes

1

КиноПоиск HD

Кинопоиск HD

iTunes

13

1 сезон

RePack

30

Новинка

ВАЖНО

ИГРА 18+

pack

RePack

MK11
pack

Легкие деньги

RePack

jed

RePack

fifa19

RePack

RDR2

RePack

NEED FOR SPEED™ PAYBACK

4 сезон

9 сезон

Бесстыжие 9 сезон

Все сериалы

все сериалы на PB.wtf

RePack

FAR CRY 5
  
Magnet ссылка

Похититель тел / Corps à corps (Франсуа Ансс) [2003 г., Триллер, драма, DVDRip, MVO, лицензия] pb.wtf

Похититель тел через торрент pb.wtf

Размер: 1.37 GB | Добавлен: 8 лет назад | Торрент скачан:47 раз
Скачать  

12-03-2013 11:42 Похититель тел Скачать торрент  

Похититель тел / Corps à corps«Шрамы прошлого не исчезают никогда»Год выпуска: 2003
Страна: Франция
Жанр: Триллер, драма,
Продолжительность: 01:36:58
Перевод: Профессиональный многоголосый, Лицензия

Режиссер: Франсуа Ансс
Продюссер: Клод Каррер, Патрик Гуйу-Бошам, Анн Регар
Сценарий: Артур-Эммануэль Пьер

Премьера в мире: 11 апреля 2003

Возраст 16+ зрителям, достигшим 16 лет
IMDb: 5.80 (504)
Кинопоиск: 7.431 194

В ролях: Эмманюэль Сенье, Филипп Торретон, Клеман Брийан, Виттория Сконьямильо, Иоланда Моро, Марк Дюре, Морис Лами, Люсьен Жером, Кристиан Перейра, Элоиз Бон, Тони Готье,

Описание: Они любили друг друга. Они любили друг друга так, как мы можем только представлять в своих мечтах. Каждый день они проживали как последний. Но однажды их жизнь, больше похожая на счастливую сказку, резко изменилась.

Ясное небо вдруг затянули темные грозовые тучи. Это было начало кошмара. Что-то страшное из их прошлого, что он скрыл от нее, начало вдруг проявляться. Что-то, на чем он построил их счастье…
26 февраля 2004, «CP-Digital»

Какой неожиданно хороший фильм, о котором мало кто знает. Блестящий психологический триллер.

Проститутка Лора решается на смелый шаг — покончить с прежней жизнью, начать все заново при помощи Марко, который почему-то влюблен в нее до безумия. И страшная авария становится началом этой самой новой жизни. Изуродованная, потерявшая слух Лора оказалась в доме Марко. И заново научилась любить и быть счастливой. Но одна роковая случайность — и всплывает прошлое Марка, его истинные цели и мотивы. Любовь превращается в кошмар, а счастье в безумие.

Все же умеют французы делать кино. Даже такой вот, абсолютно неизвестный широкому зрителю, состав создателей и исполнителей — на лопатки укладывает очень и очень многие триллеры, сделанные куда более именитыми людьми.

Режиссура в фильме — ровная, грамотная, но без изысков. Главная же заслуга — сюжет. Нам потихоньку выдали завязку, похожую на мелодраму. Вдруг, за пару минут фильм превращается в детектив. Детектив приобретает драматические оттенки, набирает обороты и, пройдя кульминацию, становится крепчайшим, напряженным триллером. А потом вдруг снова драмой. Да такой, что от финальной сцены и музыкального сопровождения титров даже как-то щемит на душе.

Самое забавное, что всю соль фильма Вам доступно объяснят задолго до финальных титров, но за всеми поворотами сюжета (коих, кстати, много — и предсказуемых, и довольно неожиданных), что до, что после этого объяснения — чертовски интересно следить! И каждая из составляющих — выполнена на изумительно качественном уровне. Героям действительно сопереживаешь и от экрана очень тяжело оторваться.

В этом, конечно, большая заслуга и самих героев. Вернее тех, кто эти образы воплотил на экране. Эмманюэль Сенье, Филипп Торретон и Клемент Брилланд (кто все эти люди?) — прекрасно играют, на них приятно смотреть, им действительно веришь.

И, все верно — фильм о любви. О любви так немногие могут снимать. Французы — впереди планеты всей, точно. Браво.

На что Вы готовы ради своей любви? Посмотрите фильм, и попробуйте ответить на этот вопрос сами для себя…
Качество: DVDRip
Формат: AVI
Видео кодек: XviD
Аудио кодек: AC3
Видео: 720x304 (2.37:1), 25 fps, XviD build 47 ~1564 kbps avg, 0.29 bit/pixel
Аудио#1: 48 kHz, AC3 Dolby Digital, 3/2 (L,C,R,l,r) + LFE ch, ~448 kbps









Общее
Полное имя : D:TorrentPohititelj.tel.2003.XviD.DVDRip.avi
Формат : AVI
Формат/Информация : Audio Video Interleave
Размер файла : 1,37 Гбайт
Продолжительность : 1 ч. 36 м.
Общий поток : 2023 Кбит/сек
Программа кодирования : VirtualDubMod 1.5.10.2 (build 2540/release)
Библиотека кодирования : VirtualDubMod build 2540/release

Видео
Идентификатор : 0
Формат : MPEG-4 Visual
Профиль формата : Advanced Simple@L5
Параметр BVOP формата : Нет
Параметр QPel формата : Нет
Параметр GMC формата : Без точки перехода
Параметр матрицы формата : Default (H.263)
Идентификатор кодека : XVID
Идентификатор кодека/Подсказка : XviD
Продолжительность : 1 ч. 36 м.
Битрейт : 1565 Кбит/сек
Ширина : 720 пикс.
Высота : 304 пикс.
Соотношение сторон : 2,35:1
Частота кадров : 25,000 кадр/сек
Цветовое пространство : YUV
Подвыборка цветности : 4:2:0
Битовая глубина : 8 бит
Тип развёртки : Прогрессивная
Метод сжатия : С потерями
Бит/(Пиксели*Кадры) : 0.286
Размер потока : 1,06 Гбайт (77%)
Библиотека кодирования : XviD 1.2.0.dev47 (UTC 2006-11-01)

Аудио
Идентификатор : 1
Формат : AC-3
Формат/Информация : Audio Coding 3
Расширение режима : CM (complete main)
Идентификатор кодека : 2000
Продолжительность : 1 ч. 36 м.
Вид битрейта : Постоянный
Битрейт : 448 Кбит/сек
Каналы : 6 каналов
Расположение каналов : Front: L C R, Side: L R, LFE
Частота : 48,0 КГц
Битовая глубина : 16 бит
Метод сжатия : С потерями
Размер потока : 311 Мбайт (22%)
Выравнивание : Разделение по промежуткам
Продолжительность промежутка : 40 мс. (1,00 видеокадр)
Время предзагрузки промежутка : 500 ms

pb.wtf



Скачать Похититель тел через торрент https://pic.kartinco.top/images/2/o97tlee85s.jpg Скачать фильм Похититель тел через торрент бесплантно в хорошем качестве Описание: Они любили друг друга. Они любили друг друга так, как мы можем только представлять в своих мечтах. Каждый день они проживали как ... 1 10 1
Info! Золотая раздача, скачанное не засчитывается.
Торрент: Зарегистрирован [2013-03-12 11:42] · скачан: 47 раз
Статус: √ проверено
Размер: 1.37 GB
Как cкачать? Как скачать Похититель тел через торрент | UTorrent

% Раздел Тема Автор DL S | L
Фильмы 2001-2005 [ 653 MB ] Похититель тел / Corps a corps [2003 ... DVDRip] kycher1972 Скачать
1 | 0


Последний раз редактировалось: jump88 (2013-03-13 05:49), всего редактировалось 1 раз

28-11-2019 20:33  

Отключить всю рекламу на сайте

12-03-2013 12:38 Похититель тел Скачать торрент  

jump88
Просмотри еще раз раздачу. У тебя где то ошибка тэга. Не корректно отображается.pb.wtf



12-03-2013 16:37 Похититель тел Скачать торрент  

Автор, встаньте на раздачу. Осталось докачать 4%pb.wtf



    Дорогой пользователь! Огромная просьба, поблагодарите релизера, оцените раздачу и оставьте свои комментарий, если Вы скачали Похититель тел через торрент бесплатно! Внесите свою лепту в развитие PiratBit!
    Комментировать посты могут только пользователи прошедшие не сложную регистрацию
    Показать сообщения:    

    Похититель тел через торрент
    Скачать бесплатно Похититель тел
    Похититель тел скачать торрент
    Похититель тел смотреть онлайн
    Cкачать фильм Похититель тел бесплатно
    Похититель тел скачать торрент в хорошем качестве
    Похититель тел смотреть онлайн бесплатно в хорошем качестве


    Вы не можете начинать темы
    Вы не можете отвечать на сообщения
    Вы не можете редактировать свои сообщения
    Вы не можете удалять свои сообщения
    Вы не можете голосовать в опросах
    Вы не можете прикреплять файлы к сообщениям
    Вы можете скачивать файлы