2 сезон

iTunes

1 сезон

1

iTunes

iTunes

iTunes

1 сезон

RePack

30

ИГРА 18+

pack

ВАЖНО

!!Акция!!

Alien_RageХит недели

RePack

MK11
pack

Забери бонус

RePack

jed

!!Акция!!

Alien_Rage

RePack

fifa19

RePack

Assassins Creed: Odyssey

RePack

NEED FOR SPEED™ PAYBACK

4 сезон

9 сезон

Бесстыжие 9 сезон

Все сериалы

все сериалы на PB.wtf

RePack

FAR CRY 5
  

Беги, толстяк, беги / Run Fatboy Run (Дэвид Швиммер) [2007 г., мелодрама, комедия, спорт, BDRip 720p, MVO, лицензия] pb.wtf

Беги, толстяк, беги через торрент pb.wtf

Размер: 4.69 GB | Добавлен: 7 лет 7 мес. назад | Торрент скачан:100 раз
Скачать  

13-03-2013 11:25 Беги, толстяк, беги Скачать торрент  

Беги, толстяк, беги / Run Fatboy Run


Год выпуска: 2007
Страна: Великобритания
Жанр: мелодрама, комедия, спорт,
Продолжительность: 01:40:13
Перевод: Профессиональный многоголосый, Лицензия
Тип релиза: Лицензия
Субтитры: Есть

Режиссер: Дэвид Швиммер
Продюссер: Сара Кертис, Роберт Джонс, Марта Коулмэн
Сценарий: Майкл Йен Блэк, Саймон Пегг

Бюджет: $10 000 000

Мировой рейтинг IMDB 6.60 (42 484)


В ролях: Саймон Пегг, Тэнди Ньютон, Хэнк Азария, Дилан Моран, Хэриш Патель, Индия Дэ Бьюфорт, Мэттью Фентон,

Описание: Это Лондонский марафон, тысячи ног бегут по Набережной Темзы. Две из них принадлежат не очень спортивному неудачнику Деннису Дойлу. Он бежит для того, чтобы вновь завоевать уважение (а возможно и любовь) Либби. Это девушка, которую он бросил у алтаря беременной и с разбитым сердцем пять лет назад. А рядом с ним бежит новый друг Либби — красивый, успешный, уверенный в себе и в отличной форме. Сможет ли Дэннис вернуть то, что потерял? Одно известно наверняка — он готов отдать сердце и душу, чтобы получить еще один шанс.

Качество: BDRip 720p
Формат: MKV
Видео кодек: H.26x
Аудио кодек: AC3/DTS ES
Видео: 1280x536 (2.35:1), 23.976 fps, 4 730 Kbps (0.288 bit/pixel)
Аудио#1: AC-3, 48.0 KHz, 6 ch, 448 Kbps, CBR (Russian)
Аудио#2: DTS ES, 48.0 KHz, 6 ch, 1 510 Kbps, CBR (English)
Субтитры: Russian, Ukrainian, English, Romanian, Portuguese, Czech











Общее
Уникальный идентификатор : 198805072423192827370594811642981379164 (0x959076D64F01AC42BB8E6D77E593EC5C)
Полное имя : E:Run.Fat.Boy.Run.2007.720p.BluRay.DTS-ES.x264.Rus.EngRun.Fat.Boy.Run.2007.720p.BluRay.x264.Rus.mkv
Формат : Matroska
Версия формата : Version 1
Размер файла : 3,63 Гбайт
Продолжительность : 1 ч. 40 м.
Общий поток : 5183 Кбит/сек
Название фильма : Run.Fat.Boy.Run.2007.720p.BluRay.DTS-ES.x264-ESiR
Дата кодирования : UTC 2008-10-22 17:03:14
Программа кодирования : mkvmerge v2.0.2 ('You're My Flame') built on Feb 22 2007 00:05:35
Библиотека кодирования : libebml v0.7.7 + libmatroska v0.8.1
Attachment : Yes / Yes

Видео
Идентификатор : 1
Формат : AVC
Формат/Информация : Advanced Video Codec
Профиль формата : High@L5.1
Параметр CABAC формата : Да
Параметр ReFrames формата : 6 кадров
Идентификатор кодека : V_MPEG4/ISO/AVC
Продолжительность : 1 ч. 40 м.
Битрейт : 4730 Кбит/сек
Ширина : 1280 пикселей
Высота : 536 пикселей
Соотношение сторон : 2,40:1
Режим частоты кадров : Постоянный
Частота кадров : 23,976 кадра/сек
Цветовое пространство : YUV
Субдискретизация насыщенности : 4:2:0
Битовая глубина : 8 бит
Тип развёртки : Прогрессивная
Бит/(Пиксели*Кадры) : 0.288
Размер потока : 3,24 Гбайт (89%)
Заголовок : ViDEO
Библиотека кодирования : x264 core 58 svn-736M
Настройки программы : cabac=1 / ref=6 / deblock=1:-3:-3 / analyse=0x3:0x133 / me=umh / subme=7 / me-prepass=0 / brdo=1 / mixed_ref=1 / me_range=24 / chroma_me=1 / trellis=0 / 8x8dct=1 / cqm=2 / deadzone=9,9 / chroma_qp_offset=0 / threads=6 / nr=0 / decimate=0 / mbaff=0 / bframes=2 / b_pyramid=1 / b_adapt=1 / b_bias=0 / direct=1 / wpredb=1 / bime=1 / keyint=250 / keyint_min=25 / scenecut=40(pre) / rc=2pass / bitrate=4730 / ratetol=1.0 / rceq='blurCplx^(1-qComp)' / qcomp=1.00 / qpmin=10 / qpmax=51 / qpstep=4 / cplxblur=20.0 / qblur=0.5 / ip_ratio=1.40 / pb_ratio=1.30 / aq=1:0.6:15.0
Язык : English
Default : Да
Forced : Нет

Аудио
Идентификатор : 2
Формат : AC-3
Формат/Информация : Audio Coding 3
Расширение режима : CM (complete main)
Параметр Endianness формата : Big
Идентификатор кодека : A_AC3
Продолжительность : 1 ч. 40 м.
Вид битрейта : Постоянный
Битрейт : 448 Кбит/сек
Каналы : 6 каналов
Расположение каналов : Front: L C R, Side: L R, LFE
Частота : 48,0 КГц
Битовая глубина : 16 бит
Метод сжатия : С потерями
Размер потока : 321 Мбайт (9%)
Заголовок : AC3 5.1 448 Kbps
Язык : Russian
Default : Да
Forced : Нет

Текст #1
Идентификатор : 3
Формат : UTF-8
Идентификатор кодека : S_TEXT/UTF8
Идентификатор кодека/Информация : UTF-8 Plain Text
Язык : Russian
Default : Да
Forced : Нет

Текст #2
Идентификатор : 4
Формат : UTF-8
Идентификатор кодека : S_TEXT/UTF8
Идентификатор кодека/Информация : UTF-8 Plain Text
Язык : Ukrainian
Default : Нет
Forced : Нет

Текст #3
Идентификатор : 5
Формат : ASS
Идентификатор кодека : S_TEXT/ASS
Идентификатор кодека/Информация : Advanced Sub Station Alpha
Метод сжатия : Без потерь
Язык : English
Default : Нет
Forced : Нет

Текст #4
Идентификатор : 6
Формат : ASS
Идентификатор кодека : S_TEXT/ASS
Идентификатор кодека/Информация : Advanced Sub Station Alpha
Метод сжатия : Без потерь
Язык : Romanian
Default : Нет
Forced : Нет

Текст #5
Идентификатор : 7
Формат : ASS
Идентификатор кодека : S_TEXT/ASS
Идентификатор кодека/Информация : Advanced Sub Station Alpha
Метод сжатия : Без потерь
Язык : Portuguese
Default : Нет
Forced : Нет

Текст #6
Идентификатор : 8
Формат : ASS
Идентификатор кодека : S_TEXT/ASS
Идентификатор кодека/Информация : Advanced Sub Station Alpha
Метод сжатия : Без потерь
Язык : Czech
Default : Нет
Forced : Нет


Беги, толстяк, беги скачать торрент


pb.wtf



Скачать Беги, толстяк, беги через торрент http://pic.kartinco.top/images/2/2n2mol69dy.jpg Скачать фильм Беги, толстяк, беги через торрент бесплантно в хорошем качестве Описание: Это Лондонский марафон, тысячи ног бегут по Набережной Темзы. Две из них принадлежат не очень спортивному неудачнику Деннису ... 9 10 1
Info! Золотая раздача, скачанное не засчитывается.
Торрент: Зарегистрирован [2013-03-13 11:25] · скачан: 100 раз
Статус: √ проверено
Размер: 4.69 GB
Как cкачать? Как скачать Беги, толстяк, беги через торрент | qTorrent

% Раздел Тема Автор DL S | L
Фильмы 2006-2008 [ 1.45 GB ] Беги толстяк беги / Run Fatboy Run [2007 ] Lyfe Скачать
1 | 0
Фильмы 2006-2008 [ 1.64 GB ] Беги толстяк беги / Run Fatboy Run [2007 HDRip] Pasha74 Скачать
1 | 0
Фильмы 2006-2008 [ 2.18 GB ] Беги толстяк беги / Run Fatboy Run [2007 ... BDRip - AVC] Andruuha Скачать
1 | 0

28-11-2019 20:33  

Отключить всю рекламу на сайте

13-03-2013 12:01 Беги, толстяк, беги Скачать торрент  

Вот она классика жанра. ВОТ ОНА КОМЕДИЯ. Саймон шикарный хранитель жанра.pb.wtf



    Дорогой пользователь! Огромная просьба, поблагодарите релизера, оцените раздачу и оставьте свои комментарий, если Вы скачали Беги, толстяк, беги через торрент бесплатно! Внесите свою лепту в развитие PiratBit!
    Комментировать посты могут только пользователи прошедшие не сложную регистрацию
    Показать сообщения:    

    Беги, толстяк, беги через торрент
    Скачать бесплатно Беги, толстяк, беги
    Беги, толстяк, беги скачать торрент
    Беги, толстяк, беги смотреть онлайн
    Cкачать фильм Беги, толстяк, беги бесплатно
    Беги, толстяк, беги скачать торрент в хорошем качестве
    Беги, толстяк, беги смотреть онлайн бесплатно в хорошем качестве


    Вы не можете начинать темы
    Вы не можете отвечать на сообщения
    Вы не можете редактировать свои сообщения
    Вы не можете удалять свои сообщения
    Вы не можете голосовать в опросах
    Вы не можете прикреплять файлы к сообщениям
    Вы можете скачивать файлы