Ссылка на приватное зеркало всего за 1$. Внимание количество ограничено!!!

iTunes

iTunes

iTunes

1

iTunes

iTunes

iTunes

iTunes

iTunes

30
pack

$ от Little Big

ВАЖНО

!!Акция!!

Alien_RageХит недели

RePack

Resident Evil 21

ИГРА 18+

pack

RePack

jed

!!Акция!!

Alien_Rage

RePack

fifa19

RePack

Assassins Creed: Odyssey

RePack

NEED FOR SPEED™ PAYBACK

4 сезон

9 сезон

Бесстыжие 9 сезон

Все сериалы

все сериалы на PB.wtf

RePack

FAR CRY 5
  

Восход тьмы / The Seeker: The Dark Is Rising (Дэвид Л. Каннингэм) [2007 г., фэнтези, триллер, драма, приключения, HDTVRip 720p, DUB, лицензия] pb.wtf

Восход тьмы через торрент pb.wtf

Размер: 4.62 GB | Добавлен: 7 лет 4 мес. назад | Торрент скачан:98 раз
Скачать  

13-03-2013 12:03 Восход тьмы Скачать торрент  



Восход тьмы: / The Seeker The Dark Is Rising

«Even the smallest of light... shines in the darkness»
Год выпуска: 2007
Страна: США
Жанр: фэнтези, триллер, драма, приключения,
Продолжительность: 01:38:52
Перевод: Дубляж, Лицензия
Субтитры: Нет

Режиссер: Дэвид Л. Каннингэм
Продюссер: Марк Э. Платт, Джаред ЛеБофф, Рон Шмидт
Сценарий: Джон Ходж, Сьюзэн Купер

Мировой рейтинг IMDB 4.70 (9 962)


В ролях: Александр Людвиг, Кристофер Экклстон, Иэн МакШейн, Фрэнсис Конрой, Джеймс Космо, Джим Пиддок, Амелия Уорнер, Джон Бенжамин Хикки, Венди Крюсон, Эмма Локхарт, Артем Сергеев, Александр Большаков, Виктор Костецкий, Артем Веселов, Регина Щукина,

Описание: В американской многодетной семье, отец которой физик, проживал мальчик по имени Уилл Стантон - младший ребенок в этой большой и дружной семье, не так давно переехавшей из штатов в старинный городок к северо - западу от Лондона. В день Рождения мальчика, когда ему исполнялось четырнадцать лет, один местный аристократ сообщил Уиллу, что он последний в плеяде Старейших, что он предначертанный судьбой защитник Света от Тьмы. Тьму представлял местный доктор - оборотень Экклстоун. На защиту Света у мальчика было всего пять дней.

Качество: HDTVRip
Формат: MKV
Видео кодек: H.26x
Аудио кодек: AC3
Видео: 1280x720 (16:9), 23.976 fps, 5 940 Kbps (0.269 bit/pixel)
Аудио#1: AC-3, 48.0 KHz, 6 ch, 384 Kbps, CBR (Russian)
Аудио#2: AC-3, 48.0 KHz, 2 ch, 384 Kbps, CBR (English)










Общее
Уникальный идентификатор : 172706860510794568182191606716616220767 (0x81EE21A520755B6585866DA8A695205F)
Полное имя : E:Восход тьмы.2007.x264.HDTVRip.mkv
Формат : Matroska
Версия формата : Version 1
Размер файла : 4,62 Гбайт
Продолжительность : 1 ч. 38 м.
Общий поток : 6694 Кбит/сек
Название фильма : *Vitala19*
Дата кодирования : UTC 2008-11-04 18:39:58
Программа кодирования : mkvmerge v2.3.0 ('Freak U') built on Sep 8 2008 18:32:16
Библиотека кодирования : libebml v0.7.7 + libmatroska v0.8.1

Видео
Идентификатор : 1
Формат : AVC
Формат/Информация : Advanced Video Codec
Профиль формата : High@L4.1
Параметр CABAC формата : Да
Параметр ReFrames формата : 4 кадра
Идентификатор кодека : V_MPEG4/ISO/AVC
Продолжительность : 1 ч. 38 м.
Битрейт : 5940 Кбит/сек
Ширина : 1280 пикселей
Высота : 720 пикселей
Соотношение сторон : 16:9
Режим частоты кадров : Постоянный
Частота кадров : 23,976 кадра/сек
Цветовое пространство : YUV
Субдискретизация насыщенности : 4:2:0
Битовая глубина : 8 бит
Тип развёртки : Прогрессивная
Бит/(Пиксели*Кадры) : 0.269
Размер потока : 4,00 Гбайт (87%)
Библиотека кодирования : x264 core 65 r999M cc51047
Настройки программы : cabac=1 / ref=4 / deblock=1:1:-3 / analyse=0x3:0x113 / me=umh / subme=9 / psy_rd=1.0:0.0 / mixed_ref=1 / me_range=16 / chroma_me=1 / trellis=2 / 8x8dct=1 / cqm=0 / deadzone=21,11 / chroma_qp_offset=-4 / threads=3 / nr=0 / decimate=1 / mbaff=0 / bframes=3 / b_pyramid=1 / b_adapt=2 / b_bias=0 / direct=3 / wpredb=1 / keyint=250 / keyint_min=25 / scenecut=40(pre) / rc=2pass / bitrate=5940 / ratetol=1.0 / qcomp=0.60 / qpmin=10 / qpmax=51 / qpstep=4 / cplxblur=20.0 / qblur=0.5 / vbv_maxrate=50000 / vbv_bufsize=50000 / ip_ratio=1.40 / pb_ratio=1.30 / aq=1:1.00
Язык : English
Default : Да
Forced : Нет

Аудио #1
Идентификатор : 2
Формат : AC-3
Формат/Информация : Audio Coding 3
Расширение режима : CM (complete main)
Параметр Endianness формата : Big
Идентификатор кодека : A_AC3
Продолжительность : 1 ч. 38 м.
Вид битрейта : Постоянный
Битрейт : 384 Кбит/сек
Каналы : 6 каналов
Расположение каналов : Front: L C R, Side: L R, LFE
Частота : 48,0 КГц
Битовая глубина : 16 бит
Метод сжатия : С потерями
Размер потока : 272 Мбайт (6%)
Язык : Russian
Default : Да
Forced : Нет

Аудио #2
Идентификатор : 3
Формат : AC-3
Формат/Информация : Audio Coding 3
Расширение режима : CM (complete main)
Параметр Endianness формата : Big
Идентификатор кодека : A_AC3
Продолжительность : 1 ч. 38 м.
Вид битрейта : Постоянный
Битрейт : 384 Кбит/сек
Каналы : 2 канала
Расположение каналов : Front: L R
Частота : 48,0 КГц
Битовая глубина : 16 бит
Метод сжатия : С потерями
Размер потока : 272 Мбайт (6%)
Язык : English
Default : Нет
Forced : Нет


Восход тьмы скачать торрент




pb.wtf



Скачать Восход тьмы через торрент http://pic.kartinco.top/images/2/d2yq1ftimh.png Скачать фильм Восход тьмы через торрент бесплантно в хорошем качестве Описание: В американской многодетной семье, отец которой физик, проживал мальчик по имени Уилл Стантон - младший ребенок в этой большой и ... 5 10 1
Info! Золотая раздача, скачанное не засчитывается.
Торрент: Зарегистрирован [2013-03-13 12:03] · скачан: 98 раз
Статус: √ проверено
Размер: 4.62 GB
Как cкачать? Как скачать Восход тьмы через торрент | qTorrent

% Раздел Тема Автор DL S | L
Фильмы 2006-2008 [ 1.37 GB ] Восход тьмы / The Seeker: The Dark Is Rising [2007 DVDRip] Anonymous Скачать
1 | 0

28-11-2019 20:33  

Отключить всю рекламу на сайте

13-03-2013 17:20 Восход тьмы Скачать торрент  

Очень сильная мутотень... pb.wtf



    Дорогой пользователь! Огромная просьба, поблагодарите релизера, оцените раздачу и оставьте свои комментарий, если Вы скачали Восход тьмы через торрент бесплатно! Внесите свою лепту в развитие PiratBit!
    Комментировать посты могут только пользователи прошедшие не сложную регистрацию
    Показать сообщения:    

    Восход тьмы через торрент
    Скачать бесплатно Восход тьмы
    Восход тьмы скачать торрент
    Восход тьмы смотреть онлайн
    Cкачать фильм Восход тьмы бесплатно
    Восход тьмы скачать торрент в хорошем качестве
    Восход тьмы смотреть онлайн бесплатно в хорошем качестве


    Вы не можете начинать темы
    Вы не можете отвечать на сообщения
    Вы не можете редактировать свои сообщения
    Вы не можете удалять свои сообщения
    Вы не можете голосовать в опросах
    Вы не можете прикреплять файлы к сообщениям
    Вы можете скачивать файлы