1 сезон

3 сезон

iTunes

1

Line

MVO

iTunes

13

1 сезон

RePack

30

Deluxe

pack

Лицензия

ВАЖНО

ИГРА 18+

pack

RePack

MK11

RePack

jed

RePack

fifa19

RePack

RDR2

RePack

NEED FOR SPEED™ PAYBACK

4 сезон

9 сезон

Бесстыжие 9 сезон

Все сериалы

все сериалы на PB.wtf

RePack

FAR CRY 5

Anonymous, добрый вечер, мы катастрофически не успеваем собрать деньги на оплату серверов, помогите нам пожалуйста 5,10,15р., для нас важна любая помощь . В качестве благодарности мы отключим Вам всю рекламу на сайте (укажите свой ник в строку Ваше имя)!

×
  
Magnet ссылка

Гайд-Парк на Гудзоне / Hyde Park on Hudson (Роджер Мишелл / Roger Michell) [2012, драма, комедия, история, DVD5] R5 pb.wtf

Гайд-Парк на Гудзоне через торрент pb.wtf

Размер: 4.36 GB | Добавлен: 8 лет 4 мес. назад | Торрент скачан:17 раз
Скачать  

14-03-2013 00:58 Гайд-Парк на Гудзоне Скачать торрент  


Гайд-Парк на Гудзоне / Hyde Park on Hudson
«Президент. Первая леди. Король. Королева. Мать. Любовница. Один уикенд объединит две великие страны... После коктейля, разумеется.»
Страна: Великобритания
Студия: Daybreak Pictures, Film Four Ltd., Free Range Films
Жанр: драма, комедия, история
Год выпуска: 2012
Мировая премьера: 31 августа 2012
Российская премьера: 7 февраля 2013
Дата выхода DVD: 19 марта 2013
Продолжительность: 01:30:24
Перевод: Профессиональный (дублированный) [Лицензия]
Cубтитры: нет
Оригинальная аудиодорожка: нет
Режиссер: Роджер Мишелл / Roger Michell
В ролях: Билл Мюррей, Лора Линни, Сэмюэл Уэст, Оливия Колман, Элизабет Марвел, Оливия Уильямс, Элизабет Уилсон, Мартин МакДугалл, Эндрю Хавилл, Элинор Брон
Описание: История о романе президента США Фрэнка Делано Рузвельта с его кузиной Маргарет Стакли в 1939 году, который будет разворачиваться на фоне визита в его нью-йоркскую резиденцию британской королевской четы.
Бонусы: Интервью с актерами: Биллом Мюрреем, Оливией Колман, Сэмюэлем Уэстом, Скоро на DVD

Релиз группы:
Качество: DVD5 R5
Формат: DVD-Video
Видео кодек: MPEG2
Аудио кодек: AC3
Видео: PAL 16:9 (720x576(0.432)) MPEG Video, 25,000 кадр/сек, 4476 Кбит/сек
Аудио #1: Russian (Dolby AC3, 6 ch) 448 Кбит/сек, 48,0 КГц
Аудио #2: Russian (Dolby AC3, 2 ch) 192 Кбит/сек, 48,0 КГц



Title: Gajd-Park.na.Gudzone.2012.DVD5
Size: 4.36 Gb ( 4 571 096,00 KBytes ) - DVD-5
Enabled regions: 1, 2, 3, 4, 5, 6, 7, 8

VTS_01 :
Play Length: 00:00:01+01:30:24+00:00:01
Video: PAL 16:9 (720x576) VBR, Auto Letterboxed
Audio:
Russian (Dolby AC3, 6 ch)
Russian (Dolby AC3, 2 ch)

VTS_02 :
Play Length: 00:00:01+00:00:15+00:00:01
Video: PAL 16:9 (720x576) VBR, Auto Letterboxed
Audio:
Russian (Dolby AC3, 2 ch)

VTS_03 :
Play Length: 00:00:01+00:00:17+00:00:01
Video: PAL 16:9 (720x576) VBR, Auto Letterboxed
Audio:
Russian (Dolby AC3, 2 ch)

VTS_04 :
Play Length: 00:00:01+00:01:13+00:00:01+00:00:01+00:02:24+00:00:01+00:00:01+00:02:40+00:00:01
Video: PAL 16:9 (720x576) VBR, Auto Letterboxed
Audio:
Not specified (Dolby AC3, 2 ch)

VTS_05 :
Play Length: 00:00:01+00:11:51+00:00:01
Video: PAL 16:9 (720x576) VBR, Auto Letterboxed
Audio:
Russian (Dolby AC3, 2 ch)

* Menus Information *

VIDEO_TS Menu
Video:
NTSC 4:3 (720x480) VBR
Auto Pan&Scan, Auto Letterboxed
Russian Language Unit :
Title Menu

VTS_01 Menu
Video:
PAL 16:9 (720x576) VBR
Auto Letterboxed
Audio:
Not specified (Dolby AC3, 2 ch)
Russian Language Unit :
Root Menu

VTS_02 Menu
Video:
NTSC 4:3 (720x480) VBR
Auto Pan&Scan, Auto Letterboxed
Language Unit :
Angle menu
Language Unit :
Root Menu
Audio Menu
Chapter (PTT) Menu
Language Unit :
Root Menu
Audio Menu
Chapter (PTT) Menu

VTS_03 Menu
Video:
NTSC 4:3 (720x480) VBR
Auto Pan&Scan, Auto Letterboxed
Language Unit :
Angle menu
Language Unit :
Root Menu
Subpicture Menu
Chapter (PTT) Menu
Language Unit :
Root Menu
Subpicture Menu
Chapter (PTT) Menu

VTS_04 Menu
Video:
NTSC 4:3 (720x480) VBR
Auto Pan&Scan, Auto Letterboxed
Russian Language Unit :
Root Menu

VTS_05 Menu
Video:
NTSC 4:3 (720x480) VBR
Auto Pan&Scan, Auto Letterboxed
Russian Language Unit :
Root Menu
Общее
Полное имя : J:Новинки 2013Gajd-Park.na.Gudzone.2012.DVD5VIDEO_TSVTS_01_2.VOB
Формат : MPEG-PS
Размер файла : 1024 Мбайт
Продолжительность : 27 м.
Режим общего битрейта : Переменный
Общий поток : 5220 Кбит/сек

Видео
Идентификатор : 224 (0xE0)
Формат : MPEG Video
Версия формата : Version 2
Профиль формата : Main@Main
Параметр BVOP формата : Да
Параметр матрицы формата : Выборочная
Параметр GOP формата : M=3, N=15
Продолжительность : 27 м.
Вид битрейта : Переменный
Битрейт : 4476 Кбит/сек
Максимальный битрейт : 8500 Кбит/сек
Ширина : 720 пикселей
Высота : 576 пикселей
Соотношение сторон : 16:9
Частота кадров : 25,000 кадров/сек
Стандарт вещания : PAL
Цветовое пространство : YUV
Субдискретизация насыщенности : 4:2:0
Битовая глубина : 8 бит
Тип развёртки : Чересстрочная
Порядок развёртки : Верхнее поле первое
Метод сжатия : С потерями
Бит/(Пиксели*Кадры) : 0.432
Размер потока : 878 Мбайт (86%)

Аудио #1
Идентификатор : 189 (0xBD)-128 (0x80)
Формат : AC-3
Формат/Информация : Audio Coding 3
Расширение режима : CM (complete main)
Параметр Endianness формата : Big
Режим смешивания : DVD-Video
Продолжительность : 27 м.
Вид битрейта : Постоянный
Битрейт : 448 Кбит/сек
Каналы : 6 каналов
Расположение каналов : Front: L C R, Side: L R, LFE
Частота : 48,0 КГц
Битовая глубина : 16 бит
Метод сжатия : С потерями
Задержка видео : -840 мс.
Размер потока : 87,9 Мбайт (9%)

Аудио #2
Идентификатор : 189 (0xBD)-129 (0x81)
Формат : AC-3
Формат/Информация : Audio Coding 3
Расширение режима : CM (complete main)
Параметр Endianness формата : Big
Режим смешивания : DVD-Video
Продолжительность : 27 м.
Вид битрейта : Постоянный
Битрейт : 192 Кбит/сек
Каналы : 2 канала
Расположение каналов : Front: L R
Частота : 48,0 КГц
Битовая глубина : 16 бит
Метод сжатия : С потерями
Задержка видео : -776 мс.
Размер потока : 37,7 Мбайт (4%)










pb.wtf



Скачать Гайд-Парк на Гудзоне через торрент http://i036.radikal.ru/1303/4c/561f4fb0d727.jpg Скачать фильм Гайд-Парк на Гудзоне через торрент бесплантно в хорошем качестве Описание: История о романе президента США Фрэнка Делано Рузвельта с его кузиной Маргарет Стакли в 1939 году, который будет разворачиваться ... 10 10 1
Info! Золотая раздача, скачанное не засчитывается.
Торрент: Зарегистрирован [2013-03-14 00:58] · скачан: 17 раз
Статус: √ проверено
Размер: 4.36 GB
Как cкачать? Как скачать Гайд-Парк на Гудзоне через торрент | UTorrent

28-11-2019 20:33  

Отключить всю рекламу на сайте

    Дорогой пользователь! Огромная просьба, поблагодарите релизера, оцените раздачу и оставьте свои комментарий, если Вы скачали Гайд-Парк на Гудзоне через торрент бесплатно! Внесите свою лепту в развитие PiratBit!
    Комментировать посты могут только пользователи прошедшие не сложную регистрацию
    Показать сообщения:    

    Гайд-Парк на Гудзоне через торрент
    Скачать бесплатно Гайд-Парк на Гудзоне
    Гайд-Парк на Гудзоне скачать торрент
    Гайд-Парк на Гудзоне смотреть онлайн
    Cкачать фильм Гайд-Парк на Гудзоне бесплатно
    Гайд-Парк на Гудзоне скачать торрент в хорошем качестве
    Гайд-Парк на Гудзоне смотреть онлайн бесплатно в хорошем качестве


    Вы не можете начинать темы
    Вы не можете отвечать на сообщения
    Вы не можете редактировать свои сообщения
    Вы не можете удалять свои сообщения
    Вы не можете голосовать в опросах
    Вы не можете прикреплять файлы к сообщениям
    Вы можете скачивать файлы