2 сезон

iTunes

MVO

1

2 сезон

iTunes

iTunes

1 сезон

RePack

30

Новинка

ВАЖНО

ИГРА 18+

pack

RePack

MK11
pack

Легкие деньги

RePack

jed

RePack

fifa19

RePack

RDR2

RePack

NEED FOR SPEED™ PAYBACK

4 сезон

9 сезон

Бесстыжие 9 сезон

Все сериалы

все сериалы на PB.wtf

RePack

FAR CRY 5

Anonymous, доброе утро, мы не успеваем собрать деньги на оплату серверов за декабрь и январь, помогите нам пожалуйста в это трудное время. В качестве благодарности мы отключим Вам всю рекламу на сайте (укажите свой ник в строку Ваше имя)!

×
  
Magnet ссылка

Сборник видеоклипов / Music Video vol.2 [2008-2013 г., Trance, WEB-DLRip] pb.wtf

Сборник видеоклипов через торрент pb.wtf

Размер: 3 GB | Добавлен: 7 лет 10 мес. назад | Торрент скачан:282 раза
Скачать  

14-03-2013 15:30 Сборник видеоклипов Скачать торрент  

Сборник видеоклипов / Music Video vol.2
Год выпуска: 2008-2013
Страна: All World
Жанр: Trance
Продолжительность: 02:40:10
1.Above & Beyond feat. Zoe Johnston - Alchemy (Official Music Video)
2.Aelyn - Believe In Us (Official Music Video)
3.ATB feat. Cristina Soto - Twisted Love (Distant Earth Vocal Version)
4.ATB with Rudee feat. Ramona Nerra - In And Out Of Love (Official Music Video)
5.Baluy & 1zik featuring Shir - Mediocre Love (Official Music Video)
6.Betsie Larkin & Lange - Obvious (Official Music Video)
7.'Breaking Through' Stoneface & Terminal feat. Ellie Lawson (Official Music Video)
8.Christian Burns, Paul Oakenfold & JES - As We Collide (Orjan Nilsen Remix) (Official Music Video)
9.Cosmic Gate & Emma Hewitt - Calm Down (Official Music Video)
10.Dennis Sheperd & Cold Blue ft. Ana Criado - Fallen Angel (A & Z Remix) (Official Music Video)
11.Dennis Sheperd feat. Molly Bancroft - Silence (Official Music Video)
12.Dinka feat. Angelika Vee - Inseparable (Official Music Video)
13.DJ Shog - Running Water (Official Music Video)
14.Filo Peri feat Sara Crockett Goodbye Pluto - The Hardest Thing (Official Music Video)
15.First State ft. Relyk - Cross The Line (Official Music Video)
16.Gareth Emery feat. Lucy Saunders - Sanctuary (Official Music Video)
17.George Acosta Feat. Fisher -- The Way She Loves (Official Music Video)
18.Ian Carey - Shot Caller (Official Music Video)
19.Igor Garnier feat. Minja - You Can Take My Breath (Official Music Video)
20.Igor Garnier ft. Malena - Feel Desire (Official Music Video)
21.Kaskade Featuring Mindy Gledhill - Eyes (Official Music Video)
22.Lange Feat. Stine Grove - Crossroads (Official Music Video)
23.Leinender - Human Motion (Official Music Video)
24.Leinender - Wastefulness 2011 (Official Music Video)
25.Manufactured Superstars & Jeziel Quintela featuring Christian Burns - Silver Splits The Blue (Official Music Video)
26.Mark Eteson feat. Audrey Gallagher - Breathe On My Own (Official Music Video)
27.Moonbeam feat. Avis Vox - Disappearance (Official Music Video)
28.Moonbeam feat. Pryce Oliver & Avis Vox - What Else Is There (Official Music Video)
29.Moonbeam with Eitan Carmi feat. Matvey Emerson - Wanderer (Official Music Video)
30.Mr Sam & Andy Duguid ft. Amanda Wilson - Satisfaction Guaranteed (Official Music Video)
31.Narany feat Krayzee - The Storm (Official Music Video)
32.Natalie Exland - Капли (Official Music Video)
33.Nektarios & Kirsty Hawkshaw - Dawn (Cold Blue Remix Edit) (Official Music Video)
34.Paul Oakenfold feat. Matt Goss - Firefly (Official Music Video)
35.Paul Vinitsky & Fisher - One Heart (Official Music Video)
36.Richard Durand - Always The Sun (Official Music Video)
37.Roma Pafos feat. Sunblind - For A Second (Official Music Video)
38.Two One feat. Anthya - The End Is Over (Official Music Video)
39.Victoria Aitken - Weekend Lover (Official Music Video)
40.Zaa feat Molly - Surrender (Official Music Video)
Качество: WEB-DLRip
Формат: MPEG-4
Видео кодек: H.26x
Аудио кодек: AAC
Видео: 1280x720,1920x1080; 23,976 кадра/сек - 25,000 кадров/сек; ~ 4000 Кбит/сек
Аудио#1: AAC, 2.0, ~192 Кбит/сек"Скриншоты"скриншот   скриншот   скриншот   скриншот  
скриншот   скриншот   скриншот   скриншот  

Общее
Полное имя : E:Music Video (Vocal Trance)-2 (2008-2013)'Breaking Through' Stoneface & Terminal feat. Ellie Lawson (official Video).mp4
Формат : MPEG-4
Профиль формата : Base Media / Version 2
Идентификатор кодека : mp42
Размер файла : 66,0 Мбайт
Продолжительность : 3 м. 25 с.
Режим общего битрейта : Переменный
Общий поток : 2693 Кбит/сек
Дата кодирования : UTC 2012-03-19 16:13:24
Дата пометки : UTC 2012-03-19 16:13:24
gsst : 0
gstd : 205611
gssd : B2EE8CF4AMM1358577965680514
gshh : r7---sn-hxb54vo-304e.c.youtube.com

Видео
Идентификатор : 1
Формат : AVC
Формат/Информация : Advanced Video Codec
Профиль формата : High@L4.0
Параметр CABAC формата : Да
Параметр ReFrames формата : 1 кадр
Параметр GOP формата : M=1, N=25
Идентификатор кодека : avc1
Идентификатор кодека/Информация : Advanced Video Coding
Продолжительность : 3 м. 25 с.
Битрейт : 2539 Кбит/сек
Максимальный битрейт : 8573 Кбит/сек
Ширина : 1920 пикселей
Высота : 1080 пикселей
Соотношение сторон : 16:9
Режим частоты кадров : Постоянный
Частота кадров : 25,000 кадров/сек
Цветовое пространство : YUV
Субдискретизация насыщенности : 4:2:0
Битовая глубина : 8 бит
Тип развёртки : Прогрессивная
Бит/(Пиксели*Кадры) : 0.049
Размер потока : 62,2 Мбайт (94%)
Дата пометки : UTC 2012-03-19 16:13:24

Аудио
Идентификатор : 2
Формат : AAC
Формат/Информация : Advanced Audio Codec
Профиль формата : LC
Идентификатор кодека : 40
Продолжительность : 3 м. 25 с.
Вид битрейта : Переменный
Битрейт : 152 Кбит/сек
Максимальный битрейт : 171 Кбит/сек
Каналы : 2 канала
Расположение каналов : Front: L R
Частота : 44,1 КГц
Метод сжатия : С потерями
Размер потока : 3,72 Мбайт (6%)
Заголовок : IsoMedia File Produced by Google, 5-11-2011
Дата кодирования : UTC 2012-03-19 16:13:24
Дата пометки : UTC 2012-03-19 16:13:24

Общее
Полное имя : E:Music Video (Vocal Trance)-2 (2008-2013)Above & Beyond feat. Zoë Johnston - Alchemy (Official Video).mp4
Формат : MPEG-4
Профиль формата : Base Media / Version 2
Идентификатор кодека : mp42
Размер файла : 66,0 Мбайт
Продолжительность : 3 м. 45 с.
Режим общего битрейта : Переменный
Общий поток : 2457 Кбит/сек
Дата кодирования : UTC 2012-12-06 22:52:19
Дата пометки : UTC 2012-12-06 22:52:19
gsst : 0
gstd : 225535
gssd : B2EE8CF45HH1358580244414691
gshh : r2---sn-hxb54vo-304e.c.youtube.com

Видео
Идентификатор : 1
Формат : AVC
Формат/Информация : Advanced Video Codec
Профиль формата : High@L4.0
Параметр CABAC формата : Да
Параметр ReFrames формата : 1 кадр
Параметр GOP формата : M=1, N=48
Идентификатор кодека : avc1
Идентификатор кодека/Информация : Advanced Video Coding
Продолжительность : 3 м. 45 с.
Битрейт : 2262 Кбит/сек
Максимальный битрейт : 9450 Кбит/сек
Ширина : 1920 пикселей
Высота : 1080 пикселей
Соотношение сторон : 16:9
Режим частоты кадров : Постоянный
Частота кадров : 23,976 кадра/сек
Цветовое пространство : YUV
Субдискретизация насыщенности : 4:2:0
Битовая глубина : 8 бит
Тип развёртки : Прогрессивная
Бит/(Пиксели*Кадры) : 0.046
Размер потока : 60,8 Мбайт (92%)
Дата пометки : UTC 2012-12-06 22:52:20

Аудио
Идентификатор : 2
Формат : AAC
Формат/Информация : Advanced Audio Codec
Профиль формата : LC
Идентификатор кодека : 40
Продолжительность : 3 м. 45 с.
Вид битрейта : Переменный
Битрейт : 192 Кбит/сек
Максимальный битрейт : 201 Кбит/сек
Каналы : 2 канала
Расположение каналов : Front: L R
Частота : 44,1 КГц
Метод сжатия : С потерями
Размер потока : 5,16 Мбайт (8%)
Заголовок : IsoMedia File Produced by Google, 5-11-2011
Дата кодирования : UTC 2012-12-06 22:52:20
Дата пометки : UTC 2012-12-06 22:52:20

Общее
Полное имя : E:Music Video (Vocal Trance)-2 (2008-2013)AELYN - Believe In Us.mp4
Формат : MPEG-4
Профиль формата : Base Media / Version 2
Идентификатор кодека : mp42
Размер файла : 107 Мбайт
Продолжительность : 3 м. 42 с.
Режим общего битрейта : Переменный
Общий поток : 4042 Кбит/сек
Дата кодирования : UTC 2012-07-18 06:35:57
Дата пометки : UTC 2012-07-18 06:35:57
gsst : 0
gstd : 222330
gssd : B2EE8CF47MM1358539093609424
gshh : r4---sn-hxb54vo-304e.c.youtube.com

Видео
Идентификатор : 1
Формат : AVC
Формат/Информация : Advanced Video Codec
Профиль формата : High@L4.0
Параметр CABAC формата : Да
Параметр ReFrames формата : 1 кадр
Идентификатор кодека : avc1
Идентификатор кодека/Информация : Advanced Video Coding
Продолжительность : 3 м. 42 с.
Битрейт : 3847 Кбит/сек
Максимальный битрейт : 8940 Кбит/сек
Ширина : 1920 пикселей
Высота : 1080 пикселей
Соотношение сторон : 16:9
Режим частоты кадров : Постоянный
Частота кадров : 29,970 кадров/сек
Цветовое пространство : YUV
Субдискретизация насыщенности : 4:2:0
Битовая глубина : 8 бит
Тип развёртки : Прогрессивная
Бит/(Пиксели*Кадры) : 0.062
Размер потока : 102 Мбайт (95%)
Дата пометки : UTC 2012-07-18 06:35:58

Аудио
Идентификатор : 2
Формат : AAC
Формат/Информация : Advanced Audio Codec
Профиль формата : LC
Идентификатор кодека : 40
Продолжительность : 3 м. 42 с.
Вид битрейта : Переменный
Битрейт : 192 Кбит/сек
Максимальный битрейт : 201 Кбит/сек
Каналы : 2 канала
Расположение каналов : Front: L R
Частота : 44,1 КГц
Метод сжатия : С потерями
Размер потока : 5,09 Мбайт (5%)
Заголовок : IsoMedia File Produced by Google, 5-11-2011
Дата кодирования : UTC 2012-07-18 06:35:58
Дата пометки : UTC 2012-07-18 06:35:58

Общее
Полное имя : E:Music Video (Vocal Trance)-2 (2008-2013)ATB feat. Cristina Soto - Twisted Love (Video HD) (Distant Earth Vocal Version).mp4
Формат : MPEG-4
Профиль формата : Base Media / Version 2
Идентификатор кодека : mp42
Размер файла : 96,3 Мбайт
Продолжительность : 4 м. 50 с.
Режим общего битрейта : Переменный
Общий поток : 2784 Кбит/сек
Дата кодирования : UTC 2011-05-03 04:24:25
Дата пометки : UTC 2011-05-03 04:24:25
gsst : 0
gstd : 290280
gssd : B2EE8CF44HH1358540780809514
gshh : r1---sn-hxb54vo-304e.c.youtube.com

Видео
Идентификатор : 1
Формат : AVC
Формат/Информация : Advanced Video Codec
Профиль формата : High@L4.0
Параметр CABAC формата : Да
Параметр ReFrames формата : 1 кадр
Параметр GOP формата : M=1, N=25
Идентификатор кодека : avc1
Идентификатор кодека/Информация : Advanced Video Coding
Продолжительность : 4 м. 50 с.
Битрейт : 2627 Кбит/сек
Максимальный битрейт : 9170 Кбит/сек
Ширина : 1920 пикселей
Высота : 1080 пикселей
Соотношение сторон : 16:9
Режим частоты кадров : Постоянный
Частота кадров : 25,000 кадров/сек
Цветовое пространство : YUV
Субдискретизация насыщенности : 4:2:0
Битовая глубина : 8 бит
Тип развёртки : Прогрессивная
Бит/(Пиксели*Кадры) : 0.051
Размер потока : 90,9 Мбайт (94%)
Дата пометки : UTC 2011-05-03 04:24:29

Аудио
Идентификатор : 2
Формат : AAC
Формат/Информация : Advanced Audio Codec
Профиль формата : LC
Идентификатор кодека : 40
Продолжительность : 4 м. 50 с.
Вид битрейта : Переменный
Битрейт : 152 Кбит/сек
Максимальный битрейт : 193 Кбит/сек
Каналы : 2 канала
Расположение каналов : Front: L R
Частота : 44,1 КГц
Метод сжатия : С потерями
Размер потока : 5,26 Мбайт (5%)
Заголовок : (C) 2007 Google Inc. v08.13.2007.
Дата кодирования : UTC 2011-05-03 04:24:27
Дата пометки : UTC 2011-05-03 04:24:29

Общее
Полное имя : E:Music Video (Vocal Trance)-2 (2008-2013)ATB with Rudee feat. Ramona Nerra - In And Out Of Love (Official Video).mp4
Формат : MPEG-4
Профиль формата : Base Media / Version 2
Идентификатор кодека : mp42
Размер файла : 66,6 Мбайт
Продолжительность : 3 м. 44 с.
Режим общего битрейта : Переменный
Общий поток : 2485 Кбит/сек
Дата кодирования : UTC 2012-10-24 18:21:43
Дата пометки : UTC 2012-10-24 18:21:43
gsst : 0
gstd : 225023
gssd : B2EE8CF45MH1358601695462689
gshh : r2---sn-hxb54vo-304e.c.youtube.com

Видео
Идентификатор : 1
Формат : AVC
Формат/Информация : Advanced Video Codec
Профиль формата : High@L3.1
Параметр CABAC формата : Да
Параметр ReFrames формата : 1 кадр
Идентификатор кодека : avc1
Идентификатор кодека/Информация : Advanced Video Coding
Продолжительность : 3 м. 44 с.
Битрейт : 2290 Кбит/сек
Максимальный битрейт : 5305 Кбит/сек
Ширина : 1280 пикселей
Высота : 720 пикселей
Соотношение сторон : 16:9
Режим частоты кадров : Постоянный
Частота кадров : 25,000 кадров/сек
Цветовое пространство : YUV
Субдискретизация насыщенности : 4:2:0
Битовая глубина : 8 бит
Тип развёртки : Прогрессивная
Бит/(Пиксели*Кадры) : 0.099
Размер потока : 61,4 Мбайт (92%)
Дата пометки : UTC 2012-10-24 18:21:44

Аудио
Идентификатор : 2
Формат : AAC
Формат/Информация : Advanced Audio Codec
Профиль формата : LC
Идентификатор кодека : 40
Продолжительность : 3 м. 44 с.
Вид битрейта : Переменный
Битрейт : 192 Кбит/сек
Максимальный битрейт : 201 Кбит/сек
Каналы : 2 канала
Расположение каналов : Front: L R
Частота : 44,1 КГц
Метод сжатия : С потерями
Размер потока : 5,15 Мбайт (8%)
Заголовок : IsoMedia File Produced by Google, 5-11-2011
Дата кодирования : UTC 2012-10-24 18:21:44
Дата пометки : UTC 2012-10-24 18:21:44

Общее
Полное имя : E:Music Video (Vocal Trance)-2 (2008-2013)Baluy & 1zik featuring Shir - Mediocre Love [Official Video].mp4
Формат : MPEG-4
Профиль формата : Base Media / Version 2
Идентификатор кодека : mp42
Размер файла : 50,6 Мбайт
Продолжительность : 4 м. 51 с.
Режим общего битрейта : Переменный
Общий поток : 1457 Кбит/сек
Дата кодирования : UTC 2012-11-29 13:49:54
Дата пометки : UTC 2012-11-29 13:49:54
gsst : 0
gstd : 291618
gssd : B2EE8CF48HH1358572147004510
gshh : r5---sn-hxb54vo-304e.c.youtube.com

Видео
Идентификатор : 1
Формат : AVC
Формат/Информация : Advanced Video Codec
Профиль формата : High@L3.1
Параметр CABAC формата : Да
Параметр ReFrames формата : 1 кадр
Параметр GOP формата : M=1, N=60
Идентификатор кодека : avc1
Идентификатор кодека/Информация : Advanced Video Coding
Продолжительность : 4 м. 51 с.
Битрейт : 1263 Кбит/сек
Максимальный битрейт : 3108 Кбит/сек
Ширина : 1280 пикселей
Высота : 720 пикселей
Соотношение сторон : 16:9
Режим частоты кадров : Постоянный
Частота кадров : 25,000 кадров/сек
Цветовое пространство : YUV
Субдискретизация насыщенности : 4:2:0
Битовая глубина : 8 бит
Тип развёртки : Прогрессивная
Бит/(Пиксели*Кадры) : 0.055
Размер потока : 43,9 Мбайт (87%)
Дата пометки : UTC 2012-11-29 13:49:54

Аудио
Идентификатор : 2
Формат : AAC
Формат/Информация : Advanced Audio Codec
Профиль формата : LC
Идентификатор кодека : 40
Продолжительность : 4 м. 51 с.
Вид битрейта : Переменный
Битрейт : 192 Кбит/сек
Максимальный битрейт : 201 Кбит/сек
Каналы : 2 канала
Расположение каналов : Front: L R
Частота : 44,1 КГц
Метод сжатия : С потерями
Размер потока : 6,67 Мбайт (13%)
Заголовок : IsoMedia File Produced by Google, 5-11-2011
Дата кодирования : UTC 2012-11-29 13:49:54
Дата пометки : UTC 2012-11-29 13:49:54

Общее
Полное имя : E:Music Video (Vocal Trance)-2 (2008-2013)Betsie Larkin & Lange - Obvious.mp4
Формат : MPEG-4
Профиль формата : Base Media / Version 2
Идентификатор кодека : mp42
Размер файла : 72,1 Мбайт
Продолжительность : 3 м. 17 с.
Режим общего битрейта : Переменный
Общий поток : 3059 Кбит/сек
Дата кодирования : UTC 2012-09-02 04:50:29
Дата пометки : UTC 2012-09-02 04:50:29
gsst : 0
gstd : 197786
gssd : B2EE8CF48MH1358541762732169
gshh : r5---sn-hxb54vo-304e.c.youtube.com

Видео
Идентификатор : 1
Формат : AVC
Формат/Информация : Advanced Video Codec
Профиль формата : High@L3.1
Параметр CABAC формата : Да
Параметр ReFrames формата : 1 кадр
Идентификатор кодека : avc1
Идентификатор кодека/Информация : Advanced Video Coding
Продолжительность : 3 м. 17 с.
Битрейт : 2865 Кбит/сек
Максимальный битрейт : 6822 Кбит/сек
Ширина : 1280 пикселей
Высота : 720 пикселей
Соотношение сторон : 16:9
Режим частоты кадров : Постоянный
Частота кадров : 23,976 кадра/сек
Цветовое пространство : YUV
Субдискретизация насыщенности : 4:2:0
Битовая глубина : 8 бит
Тип развёртки : Прогрессивная
Бит/(Пиксели*Кадры) : 0.130
Размер потока : 67,5 Мбайт (94%)
Дата пометки : UTC 2012-09-02 04:50:29

Аудио
Идентификатор : 2
Формат : AAC
Формат/Информация : Advanced Audio Codec
Профиль формата : LC
Идентификатор кодека : 40
Продолжительность : 3 м. 17 с.
Вид битрейта : Переменный
Битрейт : 192 Кбит/сек
Максимальный битрейт : 202 Кбит/сек
Каналы : 2 канала
Расположение каналов : Front: L R
Частота : 44,1 КГц
Метод сжатия : С потерями
Размер потока : 4,52 Мбайт (6%)
Заголовок : IsoMedia File Produced by Google, 5-11-2011
Дата кодирования : UTC 2012-09-02 04:50:29
Дата пометки : UTC 2012-09-02 04:50:29

Общее
Полное имя : E:Music Video (Vocal Trance)-2 (2008-2013)Christian Burns, Paul Oakenfold & JES - As We Collide (Ørjan Nilsen Remix) [Music Video] [HD].mp4
Формат : MPEG-4
Профиль формата : Base Media / Version 2
Идентификатор кодека : mp42
Размер файла : 92,3 Мбайт
Продолжительность : 5 м. 30 с.
Режим общего битрейта : Переменный
Общий поток : 2341 Кбит/сек
Дата кодирования : UTC 2013-01-03 23:44:36
Дата пометки : UTC 2013-01-03 23:44:36
gsst : 0
gstd : 330721
gssd : B2EE8CF44MH1358575797071904
gshh : r1---sn-hxb54vo-304e.c.youtube.com

Видео
Идентификатор : 1
Формат : AVC
Формат/Информация : Advanced Video Codec
Профиль формата : High@L3.1
Параметр CABAC формата : Да
Параметр ReFrames формата : 1 кадр
Идентификатор кодека : avc1
Идентификатор кодека/Информация : Advanced Video Coding
Продолжительность : 5 м. 30 с.
Битрейт : 2147 Кбит/сек
Максимальный битрейт : 4992 Кбит/сек
Ширина : 1280 пикселей
Высота : 720 пикселей
Соотношение сторон : 16:9
Режим частоты кадров : Постоянный
Частота кадров : 29,970 кадров/сек
Цветовое пространство : YUV
Субдискретизация насыщенности : 4:2:0
Битовая глубина : 8 бит
Тип развёртки : Прогрессивная
Бит/(Пиксели*Кадры) : 0.078
Размер потока : 84,6 Мбайт (92%)
Дата пометки : UTC 2013-01-03 23:44:37

Аудио
Идентификатор : 2
Формат : AAC
Формат/Информация : Advanced Audio Codec
Профиль формата : LC
Идентификатор кодека : 40
Продолжительность : 5 м. 30 с.
Вид битрейта : Переменный
Битрейт : 192 Кбит/сек
Максимальный битрейт : 202 Кбит/сек
Каналы : 2 канала
Расположение каналов : Front: L R
Частота : 44,1 КГц
Метод сжатия : С потерями
Размер потока : 7,57 Мбайт (8%)
Заголовок : IsoMedia File Produced by Google, 5-11-2011
Дата кодирования : UTC 2013-01-03 23:44:37
Дата пометки : UTC 2013-01-03 23:44:37

Общее
Полное имя : E:Music Video (Vocal Trance)-2 (2008-2013)Cosmic Gate & Emma Hewitt - Calm Down (Official Video).mp4
Формат : MPEG-4
Профиль формата : Base Media / Version 2
Идентификатор кодека : mp42
Размер файла : 59,7 Мбайт
Продолжительность : 3 м. 45 с.
Режим общего битрейта : Переменный
Общий поток : 2224 Кбит/сек
Дата кодирования : UTC 2012-11-15 10:36:21
Дата пометки : UTC 2012-11-15 10:36:21
gsst : 0
gstd : 225348
gssd : B2EE8CF44MH1358601060827529
gshh : r1---sn-hxb54vo-304e.c.youtube.com

Видео
Идентификатор : 1
Формат : AVC
Формат/Информация : Advanced Video Codec
Профиль формата : High@L3.1
Параметр CABAC формата : Да
Параметр ReFrames формата : 1 кадр
Идентификатор кодека : avc1
Идентификатор кодека/Информация : Advanced Video Coding
Продолжительность : 3 м. 45 с.
Битрейт : 2029 Кбит/сек
Максимальный битрейт : 4166 Кбит/сек
Ширина : 1280 пикселей
Высота : 720 пикселей
Соотношение сторон : 16:9
Режим частоты кадров : Постоянный
Частота кадров : 25,000 кадров/сек
Цветовое пространство : YUV
Субдискретизация насыщенности : 4:2:0
Битовая глубина : 8 бит
Тип развёртки : Прогрессивная
Бит/(Пиксели*Кадры) : 0.088
Размер потока : 54,5 Мбайт (91%)
Дата пометки : UTC 2012-11-15 10:36:21

Аудио
Идентификатор : 2
Формат : AAC
Формат/Информация : Advanced Audio Codec
Профиль формата : LC
Идентификатор кодека : 40
Продолжительность : 3 м. 45 с.
Вид битрейта : Переменный
Битрейт : 192 Кбит/сек
Максимальный битрейт : 201 Кбит/сек
Каналы : 2 канала
Расположение каналов : Front: L R
Частота : 44,1 КГц
Метод сжатия : С потерями
Размер потока : 5,15 Мбайт (9%)
Заголовок : IsoMedia File Produced by Google, 5-11-2011
Дата кодирования : UTC 2012-11-15 10:36:21
Дата пометки : UTC 2012-11-15 10:36:21

Общее
Полное имя : E:Music Video (Vocal Trance)-2 (2008-2013)Dennis Sheperd & Cold Blue ft. Ana Criado - Fallen Angel (A & Z Remix) [Music Video].mp4
Формат : MPEG-4
Профиль формата : Base Media / Version 2
Идентификатор кодека : mp42
Размер файла : 70,4 Мбайт
Продолжительность : 5 м. 27 с.
Режим общего битрейта : Переменный
Общий поток : 1801 Кбит/сек
Дата кодирования : UTC 2012-05-31 01:32:44
Дата пометки : UTC 2012-05-31 01:32:44
gsst : 0
gstd : 328026
gssd : B2EE8CF4BMH1358572971144080
gshh : r8---sn-hxb54vo-304e.c.youtube.com

Видео
Идентификатор : 1
Формат : AVC
Формат/Информация : Advanced Video Codec
Профиль формата : High@L3.1
Параметр CABAC формата : Да
Параметр ReFrames формата : 1 кадр
Идентификатор кодека : avc1
Идентификатор кодека/Информация : Advanced Video Coding
Продолжительность : 5 м. 27 с.
Битрейт : 1649 Кбит/сек
Максимальный битрейт : 6959 Кбит/сек
Ширина : 1280 пикселей
Высота : 720 пикселей
Соотношение сторон : 16:9
Режим частоты кадров : Постоянный
Частота кадров : 29,970 кадров/сек
Цветовое пространство : YUV
Субдискретизация насыщенности : 4:2:0
Битовая глубина : 8 бит
Тип развёртки : Прогрессивная
Бит/(Пиксели*Кадры) : 0.060
Размер потока : 64,5 Мбайт (92%)
Дата пометки : UTC 2012-05-31 01:32:45

Аудио
Идентификатор : 2
Формат : AAC
Формат/Информация : Advanced Audio Codec
Профиль формата : LC
Идентификатор кодека : 40
Продолжительность : 5 м. 27 с.
Вид битрейта : Переменный
Битрейт : 149 Кбит/сек
Максимальный битрейт : 177 Кбит/сек
Каналы : 2 канала
Расположение каналов : Front: L R
Частота : 44,1 КГц
Метод сжатия : С потерями
Размер потока : 5,84 Мбайт (8%)
Заголовок : IsoMedia File Produced by Google, 5-11-2011
Дата кодирования : UTC 2012-05-31 01:32:45
Дата пометки : UTC 2012-05-31 01:32:45

Общее
Полное имя : E:Music Video (Vocal Trance)-2 (2008-2013)Dennis Sheperd feat. Molly Bancroft - Silence (Official Video) [HD-HQ].mp4
Формат : MPEG-4
Профиль формата : Base Media / Version 2
Идентификатор кодека : mp42
Размер файла : 83,0 Мбайт
Продолжительность : 4 м. 3 с.
Режим общего битрейта : Переменный
Общий поток : 2860 Кбит/сек
Дата кодирования : UTC 2012-08-15 09:09:18
Дата пометки : UTC 2012-08-15 09:09:18
gsst : 0
gstd : 243576
gssd : B2EE8CF46MH1358572254700795
gshh : r3---sn-hxb54vo-304e.c.youtube.com

Видео
Идентификатор : 1
Формат : AVC
Формат/Информация : Advanced Video Codec
Профиль формата : High@L3.1
Параметр CABAC формата : Да
Параметр ReFrames формата : 1 кадр
Идентификатор кодека : avc1
Идентификатор кодека/Информация : Advanced Video Coding
Продолжительность : 4 м. 3 с.
Битрейт : 2666 Кбит/сек
Максимальный битрейт : 5030 Кбит/сек
Ширина : 1280 пикселей
Высота : 720 пикселей
Соотношение сторон : 16:9
Режим частоты кадров : Постоянный
Частота кадров : 25,000 кадров/сек
Цветовое пространство : YUV
Субдискретизация насыщенности : 4:2:0
Битовая глубина : 8 бит
Тип развёртки : Прогрессивная
Бит/(Пиксели*Кадры) : 0.116
Размер потока : 77,4 Мбайт (93%)
Дата пометки : UTC 2012-08-15 09:09:18

Аудио
Идентификатор : 2
Формат : AAC
Формат/Информация : Advanced Audio Codec
Профиль формата : LC
Идентификатор кодека : 40
Продолжительность : 4 м. 3 с.
Вид битрейта : Переменный
Битрейт : 192 Кбит/сек
Максимальный битрейт : 203 Кбит/сек
Каналы : 2 канала
Расположение каналов : Front: L R
Частота : 44,1 КГц
Метод сжатия : С потерями
Размер потока : 5,57 Мбайт (7%)
Заголовок : IsoMedia File Produced by Google, 5-11-2011
Дата кодирования : UTC 2012-08-15 09:09:18
Дата пометки : UTC 2012-08-15 09:09:18

Общее
Полное имя : E:Music Video (Vocal Trance)-2 (2008-2013)Dinka feat. Angelika Vee - Inseparable (Video) [UDR-Sirup Music].mp4
Формат : MPEG-4
Профиль формата : Base Media / Version 2
Идентификатор кодека : mp42
Размер файла : 120 Мбайт
Продолжительность : 3 м. 29 с.
Режим общего битрейта : Переменный
Общий поток : 4811 Кбит/сек
Дата кодирования : UTC 2012-12-15 13:51:37
Дата пометки : UTC 2012-12-15 13:51:37
gsst : 0
gstd : 210023
gssd : B2EE8CF44MM1358576171595618
gshh : r1---sn-hxb54vo-304e.c.youtube.com

Видео
Идентификатор : 1
Формат : AVC
Формат/Информация : Advanced Video Codec
Профиль формата : High@L4.0
Параметр CABAC формата : Да
Параметр ReFrames формата : 1 кадр
Идентификатор кодека : avc1
Идентификатор кодека/Информация : Advanced Video Coding
Продолжительность : 3 м. 29 с.
Битрейт : 4616 Кбит/сек
Максимальный битрейт : 9088 Кбит/сек
Ширина : 1920 пикселей
Высота : 1080 пикселей
Соотношение сторон : 16:9
Режим частоты кадров : Постоянный
Частота кадров : 24,000 кадра/сек
Цветовое пространство : YUV
Субдискретизация насыщенности : 4:2:0
Битовая глубина : 8 бит
Тип развёртки : Прогрессивная
Бит/(Пиксели*Кадры) : 0.093
Размер потока : 115 Мбайт (96%)
Дата пометки : UTC 2012-12-15 13:51:37

Аудио
Идентификатор : 2
Формат : AAC
Формат/Информация : Advanced Audio Codec
Профиль формата : LC
Идентификатор кодека : 40
Продолжительность : 3 м. 29 с.
Вид битрейта : Переменный
Битрейт : 192 Кбит/сек
Максимальный битрейт : 202 Кбит/сек
Каналы : 2 канала
Расположение каналов : Front: L R
Частота : 44,1 КГц
Метод сжатия : С потерями
Размер потока : 4,80 Мбайт (4%)
Заголовок : IsoMedia File Produced by Google, 5-11-2011
Дата кодирования : UTC 2012-12-15 13:51:37
Дата пометки : UTC 2012-12-15 13:51:37

Общее
Полное имя : E:Music Video (Vocal Trance)-2 (2008-2013)DJ Shog - Running Water (Official Video HD).mp4
Формат : MPEG-4
Профиль формата : Base Media / Version 2
Идентификатор кодека : mp42
Размер файла : 111 Мбайт
Продолжительность : 3 м. 19 с.
Режим общего битрейта : Переменный
Общий поток : 4668 Кбит/сек
Дата кодирования : UTC 2013-01-03 16:18:28
Дата пометки : UTC 2013-01-03 16:18:28
gsst : 0
gstd : 199993
gssd : B2EE8CF44MH1358576058320160
gshh : r1---sn-hxb54vo-304e.c.youtube.com

Видео
Идентификатор : 1
Формат : AVC
Формат/Информация : Advanced Video Codec
Профиль формата : High@L4.0
Параметр CABAC формата : Да
Параметр ReFrames формата : 1 кадр
Идентификатор кодека : avc1
Идентификатор кодека/Информация : Advanced Video Coding
Продолжительность : 3 м. 19 с.
Битрейт : 4474 Кбит/сек
Максимальный битрейт : 11,2 Мбит/сек
Ширина : 1920 пикселей
Высота : 1080 пикселей
Соотношение сторон : 16:9
Режим частоты кадров : Постоянный
Частота кадров : 25,000 кадров/сек
Цветовое пространство : YUV
Субдискретизация насыщенности : 4:2:0
Битовая глубина : 8 бит
Тип развёртки : Прогрессивная
Бит/(Пиксели*Кадры) : 0.086
Размер потока : 107 Мбайт (96%)
Дата пометки : UTC 2013-01-03 16:18:29

Аудио
Идентификатор : 2
Формат : AAC
Формат/Информация : Advanced Audio Codec
Профиль формата : LC
Идентификатор кодека : 40
Продолжительность : 3 м. 19 с.
Вид битрейта : Переменный
Битрейт : 192 Кбит/сек
Максимальный битрейт : 201 Кбит/сек
Каналы : 2 канала
Расположение каналов : Front: L R
Частота : 44,1 КГц
Метод сжатия : С потерями
Размер потока : 4,57 Мбайт (4%)
Заголовок : IsoMedia File Produced by Google, 5-11-2011
Дата кодирования : UTC 2013-01-03 16:18:29
Дата пометки : UTC 2013-01-03 16:18:29

Общее
Полное имя : E:Music Video (Vocal Trance)-2 (2008-2013)Filo Peri feat Sara Crockett Goodbye Pluto - The Hardest Thing (Official Video)).mp4
Формат : MPEG-4
Профиль формата : Base Media / Version 2
Идентификатор кодека : mp42
Размер файла : 43,6 Мбайт
Продолжительность : 3 м. 40 с.
Режим общего битрейта : Переменный
Общий поток : 1659 Кбит/сек
Дата кодирования : UTC 2012-01-13 17:25:04
Дата пометки : UTC 2012-01-13 17:25:04
gsst : 0
gstd : 220658
gssd : B2EE8CF4BMM1358574322724602
gshh : r8---sn-hxb54vo-304e.c.youtube.com

Видео
Идентификатор : 1
Формат : AVC
Формат/Информация : Advanced Video Codec
Профиль формата : High@L3.1
Параметр CABAC формата : Да
Параметр ReFrames формата : 1 кадр
Идентификатор кодека : avc1
Идентификатор кодека/Информация : Advanced Video Coding
Продолжительность : 3 м. 40 с.
Битрейт : 1506 Кбит/сек
Максимальный битрейт : 3853 Кбит/сек
Ширина : 1280 пикселей
Высота : 720 пикселей
Соотношение сторон : 16:9
Режим частоты кадров : Постоянный
Частота кадров : 29,970 кадров/сек
Цветовое пространство : YUV
Субдискретизация насыщенности : 4:2:0
Битовая глубина : 8 бит
Тип развёртки : Прогрессивная
Бит/(Пиксели*Кадры) : 0.055
Размер потока : 39,6 Мбайт (91%)
Дата пометки : UTC 2012-01-13 17:25:04

Аудио
Идентификатор : 2
Формат : AAC
Формат/Информация : Advanced Audio Codec
Профиль формата : LC
Идентификатор кодека : 40
Продолжительность : 3 м. 40 с.
Вид битрейта : Переменный
Битрейт : 150 Кбит/сек
Максимальный битрейт : 240 Кбит/сек
Каналы : 2 канала
Расположение каналов : Front: L R
Частота : 44,1 КГц
Метод сжатия : С потерями
Размер потока : 3,95 Мбайт (9%)
Заголовок : IsoMedia File Produced by Google, 5-11-2011
Дата кодирования : UTC 2012-01-13 17:25:04
Дата пометки : UTC 2012-01-13 17:25:04

Общее
Полное имя : E:Music Video (Vocal Trance)-2 (2008-2013)First State ft. Relyk - Cross The Line.mp4
Формат : MPEG-4
Профиль формата : Base Media / Version 2
Идентификатор кодека : mp42
Размер файла : 51,0 Мбайт
Продолжительность : 3 м. 50 с.
Режим общего битрейта : Переменный
Общий поток : 1860 Кбит/сек
Дата кодирования : UTC 2010-09-30 12:27:58
Дата пометки : UTC 2010-09-30 12:27:58
gsst : 0
gstd : 230216
gssd : B2EE8CF49HH1358086950066666
gshh : r6---sn-hxb54vo-304e.c.youtube.com

Видео
Идентификатор : 1
Формат : AVC
Формат/Информация : Advanced Video Codec
Профиль формата : High@L3.1
Параметр CABAC формата : Да
Параметр ReFrames формата : 1 кадр
Параметр GOP формата : M=1, N=30
Идентификатор кодека : avc1
Идентификатор кодека/Информация : Advanced Video Coding
Продолжительность : 3 м. 50 с.
Битрейт : 1728 Кбит/сек
Максимальный битрейт : 10,7 Мбит/сек
Ширина : 1280 пикселей
Высота : 720 пикселей
Соотношение сторон : 16:9
Режим частоты кадров : Переменный
Частота кадров : 23,976 кадра/сек
Минимальная частота кадров : 17,241 кадров/сек
Максимальная частота кадров : 24,390 кадра/сек
Цветовое пространство : YUV
Субдискретизация насыщенности : 4:2:0
Битовая глубина : 8 бит
Тип развёртки : Прогрессивная
Бит/(Пиксели*Кадры) : 0.078
Размер потока : 47,4 Мбайт (93%)
Дата пометки : UTC 2010-09-30 12:28:02

Аудио
Идентификатор : 2
Формат : AAC
Формат/Информация : Advanced Audio Codec
Профиль формата : LC
Идентификатор кодека : 40
Продолжительность : 3 м. 50 с.
Вид битрейта : Переменный
Битрейт : 126 Кбит/сек
Максимальный битрейт : 153 Кбит/сек
Каналы : 2 канала
Расположение каналов : Front: L R
Частота : 44,1 КГц
Метод сжатия : С потерями
Размер потока : 3,46 Мбайт (7%)
Заголовок : (C) 2007 Google Inc. v08.13.2007.
Дата кодирования : UTC 2010-09-30 12:28:00
Дата пометки : UTC 2010-09-30 12:28:02

Общее
Полное имя : E:Music Video (Vocal Trance)-2 (2008-2013)Gareth Emery feat. Lucy Saunders - Sanctuary [Official Music Video].mp4
Формат : MPEG-4
Профиль формата : Base Media / Version 2
Идентификатор кодека : mp42
Размер файла : 58,5 Мбайт
Продолжительность : 4 м. 5 с.
Режим общего битрейта : Переменный
Общий поток : 2000 Кбит/сек
Дата кодирования : UTC 2010-07-13 00:37:19
Дата пометки : UTC 2010-07-13 00:37:19
gsst : 0
gstd : 245781
gssd : B2EE8CF4BHH1358572805791062
gshh : r8---sn-hxb54vo-304e.c.youtube.com

Видео
Идентификатор : 2
Формат : AVC
Формат/Информация : Advanced Video Codec
Профиль формата : High@L3.1
Параметр CABAC формата : Да
Параметр ReFrames формата : 1 кадр
Идентификатор кодека : avc1
Идентификатор кодека/Информация : Advanced Video Coding
Продолжительность : 4 м. 5 с.
Битрейт : 1881 Кбит/сек
Максимальный битрейт : 5436 Кбит/сек
Ширина : 1280 пикселей
Высота : 720 пикселей
Соотношение сторон : 16:9
Режим частоты кадров : Постоянный
Частота кадров : 25,000 кадров/сек
Цветовое пространство : YUV
Субдискретизация насыщенности : 4:2:0
Битовая глубина : 8 бит
Тип развёртки : Прогрессивная
Бит/(Пиксели*Кадры) : 0.082
Размер потока : 55,0 Мбайт (94%)
Заголовок : (C) 2007 Google Inc. v08.13.2007.
Дата кодирования : UTC 2010-07-13 00:37:19
Дата пометки : UTC 2010-07-13 00:37:20

Аудио
Идентификатор : 1
Формат : AAC
Формат/Информация : Advanced Audio Codec
Профиль формата : LC
Идентификатор кодека : 40
Продолжительность : 4 м. 5 с.
Вид битрейта : Переменный
Битрейт : 117 Кбит/сек
Максимальный битрейт : 264 Кбит/сек
Каналы : 2 канала
Расположение каналов : Front: L R
Частота : 44,1 КГц
Метод сжатия : С потерями
Размер потока : 3,42 Мбайт (6%)
Заголовок : (C) 2007 Google Inc. v08.13.2007.
Дата кодирования : UTC 2010-07-13 00:37:19
Дата пометки : UTC 2010-07-13 00:37:20

Общее
Полное имя : E:Music Video (Vocal Trance)-2 (2008-2013)George Acosta Feat. Fisher -- The Way She Loves (HD Music Video).mp4
Формат : MPEG-4
Профиль формата : Base Media / Version 2
Идентификатор кодека : mp42
Размер файла : 83,1 Мбайт
Продолжительность : 6 м. 3 с.
Режим общего битрейта : Переменный
Общий поток : 1920 Кбит/сек
Дата кодирования : UTC 2011-04-25 07:39:31
Дата пометки : UTC 2011-04-25 07:39:31
gsst : 0
gstd : 363160
gssd : B2EE8CF4BMH1358581066168518
gshh : r8---sn-hxb54vo-304e.c.youtube.com

Видео
Идентификатор : 1
Формат : AVC
Формат/Информация : Advanced Video Codec
Профиль формата : High@L3.1
Параметр CABAC формата : Да
Параметр ReFrames формата : 1 кадр
Идентификатор кодека : avc1
Идентификатор кодека/Информация : Advanced Video Coding
Продолжительность : 6 м. 3 с.
Битрейт : 1764 Кбит/сек
Максимальный битрейт : 4953 Кбит/сек
Ширина : 1280 пикселей
Высота : 720 пикселей
Соотношение сторон : 16:9
Режим частоты кадров : Постоянный
Частота кадров : 25,000 кадров/сек
Цветовое пространство : YUV
Субдискретизация насыщенности : 4:2:0
Битовая глубина : 8 бит
Тип развёртки : Прогрессивная
Бит/(Пиксели*Кадры) : 0.077
Размер потока : 76,4 Мбайт (92%)
Дата пометки : UTC 2011-04-25 07:39:36

Аудио
Идентификатор : 2
Формат : AAC
Формат/Информация : Advanced Audio Codec
Профиль формата : LC
Идентификатор кодека : 40
Продолжительность : 6 м. 3 с.
Вид битрейта : Переменный
Битрейт : 152 Кбит/сек
Максимальный битрейт : 195 Кбит/сек
Каналы : 2 канала
Расположение каналов : Front: L R
Частота : 44,1 КГц
Метод сжатия : С потерями
Размер потока : 6,56 Мбайт (8%)
Заголовок : (C) 2007 Google Inc. v08.13.2007.
Дата кодирования : UTC 2011-04-25 07:39:34
Дата пометки : UTC 2011-04-25 07:39:36

Общее
Полное имя : E:Music Video (Vocal Trance)-2 (2008-2013)Ian Carey - Shot Caller (OFFICIAL MUSIC VIDEO) HD.mp4
Формат : MPEG-4
Профиль формата : Base Media / Version 2
Идентификатор кодека : mp42
Размер файла : 47,1 Мбайт
Продолжительность : 3 м. 5 с.
Режим общего битрейта : Переменный
Общий поток : 2131 Кбит/сек
Дата кодирования : UTC 2009-08-30 01:46:16
Дата пометки : UTC 2009-08-30 01:46:16
gsst : 0
gstd : 186106
gssd : BADC23AA2MH1358581659297183
gshh : r2---sn-n8v7lnee.c.youtube.com

Видео
Идентификатор : 2
Формат : AVC
Формат/Информация : Advanced Video Codec
Профиль формата : High@L3.1
Параметр CABAC формата : Да
Параметр ReFrames формата : 3 кадра
Идентификатор кодека : avc1
Идентификатор кодека/Информация : Advanced Video Coding
Продолжительность : 3 м. 5 с.
Битрейт : 2000 Кбит/сек
Максимальный битрейт : 3953 Кбит/сек
Ширина : 1280 пикселей
Высота : 720 пикселей
Соотношение сторон : 16:9
Режим частоты кадров : Постоянный
Частота кадров : 23,976 кадра/сек
Цветовое пространство : YUV
Субдискретизация насыщенности : 4:2:0
Битовая глубина : 8 бит
Тип развёртки : Прогрессивная
Бит/(Пиксели*Кадры) : 0.091
Размер потока : 44,2 Мбайт (94%)
Заголовок : (C) 2007 Google Inc. v08.13.2007.
Дата кодирования : UTC 2009-08-30 01:46:16
Дата пометки : UTC 2009-08-30 01:46:17

Аудио
Идентификатор : 1
Формат : AAC
Формат/Информация : Advanced Audio Codec
Профиль формата : LC
Идентификатор кодека : 40
Продолжительность : 3 м. 5 с.
Вид битрейта : Переменный
Битрейт : 129 Кбит/сек
Максимальный битрейт : 238 Кбит/сек
Каналы : 2 канала
Расположение каналов : Front: L R
Частота : 44,1 КГц
Метод сжатия : С потерями
Размер потока : 2,85 Мбайт (6%)
Заголовок : (C) 2007 Google Inc. v08.13.2007.
Дата кодирования : UTC 2009-08-30 01:46:16
Дата пометки : UTC 2009-08-30 01:46:17

Общее
Полное имя : E:Music Video (Vocal Trance)-2 (2008-2013)Igor Garnier feat. Minja - You Can Take My Breath (Official Music Video) 2012-2013 Vocal Trance.mp4
Формат : MPEG-4
Профиль формата : Base Media / Version 2
Идентификатор кодека : mp42
Размер файла : 93,4 Мбайт
Продолжительность : 3 м. 23 с.
Режим общего битрейта : Переменный
Общий поток : 3847 Кбит/сек
Дата кодирования : UTC 2012-11-12 17:09:31
Дата пометки : UTC 2012-11-12 17:09:31
gsst : 0
gstd : 203823
gssd : B2EE8CF46MM1358539243305628
gshh : r3---sn-hxb54vo-304e.c.youtube.com

Видео
Идентификатор : 1
Формат : AVC
Формат/Информация : Advanced Video Codec
Профиль формата : High@L4.0
Параметр CABAC формата : Да
Параметр ReFrames формата : 1 кадр
Идентификатор кодека : avc1
Идентификатор кодека/Информация : Advanced Video Coding
Продолжительность : 3 м. 23 с.
Битрейт : 3653 Кбит/сек
Максимальный битрейт : 6443 Кбит/сек
Ширина : 1920 пикселей
Высота : 1080 пикселей
Соотношение сторон : 16:9
Режим частоты кадров : Постоянный
Частота кадров : 25,000 кадров/сек
Цветовое пространство : YUV
Субдискретизация насыщенности : 4:2:0
Битовая глубина : 8 бит
Тип развёртки : Прогрессивная
Бит/(Пиксели*Кадры) : 0.070
Размер потока : 88,7 Мбайт (95%)
Дата пометки : UTC 2012-11-12 17:09:32

Аудио
Идентификатор : 2
Формат : AAC
Формат/Информация : Advanced Audio Codec
Профиль формата : LC
Идентификатор кодека : 40
Продолжительность : 3 м. 23 с.
Вид битрейта : Переменный
Битрейт : 192 Кбит/сек
Максимальный битрейт : 204 Кбит/сек
Каналы : 2 канала
Расположение каналов : Front: L R
Частота : 44,1 КГц
Метод сжатия : С потерями
Размер потока : 4,66 Мбайт (5%)
Заголовок : IsoMedia File Produced by Google, 5-11-2011
Дата кодирования : UTC 2012-11-12 17:09:31
Дата пометки : UTC 2012-11-12 17:09:32

Общее
Полное имя : E:Music Video (Vocal Trance)-2 (2008-2013)Igor Garnier ft. Malena - Feel Desire (Official Music Video).mp4
Формат : MPEG-4
Профиль формата : Base Media / Version 2
Идентификатор кодека : mp42
Размер файла : 74,8 Мбайт
Продолжительность : 3 м. 10 с.
Режим общего битрейта : Переменный
Общий поток : 3299 Кбит/сек
Дата кодирования : UTC 2012-09-08 15:43:12
Дата пометки : UTC 2012-09-08 15:43:12
gsst : 0
gstd : 190333
gssd : B2EE8CF46MH1358539404540068
gshh : r3---sn-hxb54vo-304e.c.youtube.com

Видео
Идентификатор : 1
Формат : AVC
Формат/Информация : Advanced Video Codec
Профиль формата : High@L4.0
Параметр CABAC формата : Да
Параметр ReFrames формата : 1 кадр
Идентификатор кодека : avc1
Идентификатор кодека/Информация : Advanced Video Coding
Продолжительность : 3 м. 10 с.
Битрейт : 3104 Кбит/сек
Максимальный битрейт : 9761 Кбит/сек
Ширина : 1920 пикселей
Высота : 1080 пикселей
Соотношение сторон : 16:9
Режим частоты кадров : Постоянный
Частота кадров : 23,976 кадра/сек
Цветовое пространство : YUV
Субдискретизация насыщенности : 4:2:0
Битовая глубина : 8 бит
Тип развёртки : Прогрессивная
Бит/(Пиксели*Кадры) : 0.062
Размер потока : 70,4 Мбайт (94%)
Дата пометки : UTC 2012-09-08 15:43:12

Аудио
Идентификатор : 2
Формат : AAC
Формат/Информация : Advanced Audio Codec
Профиль формата : LC
Идентификатор кодека : 40
Продолжительность : 3 м. 10 с.
Вид битрейта : Переменный
Битрейт : 192 Кбит/сек
Максимальный битрейт : 205 Кбит/сек
Каналы : 2 канала
Расположение каналов : Front: L R
Частота : 44,1 КГц
Метод сжатия : С потерями
Размер потока : 4,35 Мбайт (6%)
Заголовок : IsoMedia File Produced by Google, 5-11-2011
Дата кодирования : UTC 2012-09-08 15:43:12
Дата пометки : UTC 2012-09-08 15:43:12

Общее
Полное имя : E:Music Video (Vocal Trance)-2 (2008-2013)Kaskade Featuring Mindy Gledhill - Eyes (Official Video).mp4
Формат : MPEG-4
Профиль формата : Base Media / Version 2
Идентификатор кодека : mp42
Размер файла : 91,4 Мбайт
Продолжительность : 4 м. 5 с.
Режим общего битрейта : Переменный
Общий поток : 3128 Кбит/сек
Дата кодирования : UTC 2011-09-12 19:26:12
Дата пометки : UTC 2011-09-12 19:26:12
gsst : 0
gstd : 245078
gssd : B2EE8CF4AMM1358540591882031
gshh : r7---sn-hxb54vo-304e.c.youtube.com

Видео
Идентификатор : 1
Формат : AVC
Формат/Информация : Advanced Video Codec
Профиль формата : High@L3.1
Параметр CABAC формата : Да
Параметр ReFrames формата : 1 кадр
Идентификатор кодека : avc1
Идентификатор кодека/Информация : Advanced Video Coding
Продолжительность : 4 м. 5 с.
Битрейт : 2971 Кбит/сек
Максимальный битрейт : 9409 Кбит/сек
Ширина : 1280 пикселей
Высота : 720 пикселей
Соотношение сторон : 16:9
Режим частоты кадров : Переменный
Частота кадров : 23,976 кадра/сек
Минимальная частота кадров : 23,810 кадра/сек
Максимальная частота кадров : 24,390 кадра/сек
Цветовое пространство : YUV
Субдискретизация насыщенности : 4:2:0
Битовая глубина : 8 бит
Тип развёртки : Прогрессивная
Бит/(Пиксели*Кадры) : 0.134
Размер потока : 86,8 Мбайт (95%)
Дата пометки : UTC 2011-09-12 19:26:12

Аудио
Идентификатор : 2
Формат : AAC
Формат/Информация : Advanced Audio Codec
Профиль формата : LC
Идентификатор кодека : 40
Продолжительность : 4 м. 5 с.
Вид битрейта : Переменный
Битрейт : 152 Кбит/сек
Максимальный битрейт : 239 Кбит/сек
Каналы : 2 канала
Расположение каналов : Front: L R
Частота : 44,1 КГц
Метод сжатия : С потерями
Размер потока : 4,44 Мбайт (5%)
Заголовок : IsoMedia File Produced by Google, 5-11-2011
Дата кодирования : UTC 2011-09-12 19:26:12
Дата пометки : UTC 2011-09-12 19:26:12

Общее
Полное имя : E:Music Video (Vocal Trance)-2 (2008-2013)Lange Feat. Stine Grove - Crossroads (Official Video).mp4
Формат : MPEG-4
Профиль формата : Base Media / Version 2
Идентификатор кодека : mp42
Размер файла : 71,4 Мбайт
Продолжительность : 4 м. 21 с.
Режим общего битрейта : Переменный
Общий поток : 2294 Кбит/сек
Дата кодирования : UTC 2012-08-06 12:57:35
Дата пометки : UTC 2012-08-06 12:57:35
gsst : 0
gstd : 261176
gssd : B2EE8CF48MM1358541578698325
gshh : r5---sn-hxb54vo-304e.c.youtube.com

Видео
Идентификатор : 1
Формат : AVC
Формат/Информация : Advanced Video Codec
Профиль формата : High@L4.0
Параметр CABAC формата : Да
Параметр ReFrames формата : 1 кадр
Идентификатор кодека : avc1
Идентификатор кодека/Информация : Advanced Video Coding
Продолжительность : 4 м. 21 с.
Битрейт : 2099 Кбит/сек
Максимальный битрейт : 4458 Кбит/сек
Ширина : 1920 пикселей
Высота : 1080 пикселей
Соотношение сторон : 16:9
Режим частоты кадров : Постоянный
Частота кадров : 25,000 кадров/сек
Цветовое пространство : YUV
Субдискретизация насыщенности : 4:2:0
Битовая глубина : 8 бит
Тип развёртки : Прогрессивная
Бит/(Пиксели*Кадры) : 0.040
Размер потока : 65,3 Мбайт (92%)
Дата пометки : UTC 2012-08-06 12:57:35

Аудио
Идентификатор : 2
Формат : AAC
Формат/Информация : Advanced Audio Codec
Профиль формата : LC
Идентификатор кодека : 40
Продолжительность : 4 м. 21 с.
Вид битрейта : Переменный
Битрейт : 192 Кбит/сек
Максимальный битрейт : 204 Кбит/сек
Каналы : 2 канала
Расположение каналов : Front: L R
Частота : 44,1 КГц
Метод сжатия : С потерями
Размер потока : 5,97 Мбайт (8%)
Заголовок : IsoMedia File Produced by Google, 5-11-2011
Дата кодирования : UTC 2012-08-06 12:57:35
Дата пометки : UTC 2012-08-06 12:57:35

Общее
Полное имя : E:Music Video (Vocal Trance)-2 (2008-2013)Leinender - Human Motion (Official Music Video).mp4
Формат : MPEG-4
Профиль формата : Base Media / Version 2
Идентификатор кодека : mp42
Размер файла : 79,1 Мбайт
Продолжительность : 3 м. 24 с.
Режим общего битрейта : Переменный
Общий поток : 3243 Кбит/сек
Дата кодирования : UTC 2012-04-12 01:36:11
Дата пометки : UTC 2012-04-12 01:36:11
gsst : 0
gstd : 204683
gssd : B2EE8CF47MH1358538901224341
gshh : r4---sn-hxb54vo-304e.c.youtube.com

Видео
Идентификатор : 1
Формат : AVC
Формат/Информация : Advanced Video Codec
Профиль формата : High@L4.0
Параметр CABAC формата : Да
Параметр ReFrames формата : 1 кадр
Идентификатор кодека : avc1
Идентификатор кодека/Информация : Advanced Video Coding
Продолжительность : 3 м. 24 с.
Битрейт : 3089 Кбит/сек
Максимальный битрейт : 10,2 Мбит/сек
Ширина : 1920 пикселей
Высота : 1080 пикселей
Соотношение сторон : 16:9
Режим частоты кадров : Постоянный
Частота кадров : 24,000 кадра/сек
Цветовое пространство : YUV
Субдискретизация насыщенности : 4:2:0
Битовая глубина : 8 бит
Тип развёртки : Прогрессивная
Бит/(Пиксели*Кадры) : 0.062
Размер потока : 75,3 Мбайт (95%)
Дата пометки : UTC 2012-04-12 01:36:11

Аудио
Идентификатор : 2
Формат : AAC
Формат/Информация : Advanced Audio Codec
Профиль формата : LC
Идентификатор кодека : 40
Продолжительность : 3 м. 24 с.
Вид битрейта : Переменный
Битрейт : 152 Кбит/сек
Максимальный битрейт : 216 Кбит/сек
Каналы : 2 канала
Расположение каналов : Front: L R
Частота : 44,1 КГц
Метод сжатия : С потерями
Размер потока : 3,70 Мбайт (5%)
Заголовок : IsoMedia File Produced by Google, 5-11-2011
Дата кодирования : UTC 2012-04-12 01:36:11
Дата пометки : UTC 2012-04-12 01:36:11

Общее
Полное имя : E:Music Video (Vocal Trance)-2 (2008-2013)Leinender - Wastefulness 2011 (Official Music Video).mp4
Формат : MPEG-4
Профиль формата : Base Media / Version 2
Идентификатор кодека : mp42
Размер файла : 123 Мбайт
Продолжительность : 4 м. 56 с.
Режим общего битрейта : Переменный
Общий поток : 3487 Кбит/сек
Дата кодирования : UTC 2011-12-26 13:40:56
Дата пометки : UTC 2011-12-26 13:40:56
gsst : 0
gstd : 296425
gssd : B2EE8CF4AMH1358538780897082
gshh : r7---sn-hxb54vo-304e.c.youtube.com

Видео
Идентификатор : 1
Формат : AVC
Формат/Информация : Advanced Video Codec
Профиль формата : High@L4.0
Параметр CABAC формата : Да
Параметр ReFrames формата : 1 кадр
Идентификатор кодека : avc1
Идентификатор кодека/Информация : Advanced Video Coding
Продолжительность : 4 м. 56 с.
Битрейт : 3332 Кбит/сек
Максимальный битрейт : 8918 Кбит/сек
Ширина : 1920 пикселей
Высота : 1080 пикселей
Соотношение сторон : 16:9
Режим частоты кадров : Постоянный
Частота кадров : 24,000 кадра/сек
Цветовое пространство : YUV
Субдискретизация насыщенности : 4:2:0
Битовая глубина : 8 бит
Тип развёртки : Прогрессивная
Бит/(Пиксели*Кадры) : 0.067
Размер потока : 118 Мбайт (96%)
Дата пометки : UTC 2011-12-26 13:40:56

Аудио
Идентификатор : 2
Формат : AAC
Формат/Информация : Advanced Audio Codec
Профиль формата : LC
Идентификатор кодека : 40
Продолжительность : 4 м. 56 с.
Вид битрейта : Переменный
Битрейт : 152 Кбит/сек
Максимальный битрейт : 181 Кбит/сек
Каналы : 2 канала
Расположение каналов : Front: L R
Частота : 44,1 КГц
Метод сжатия : С потерями
Размер потока : 5,36 Мбайт (4%)
Заголовок : IsoMedia File Produced by Google, 5-11-2011
Дата кодирования : UTC 2011-12-26 13:40:56
Дата пометки : UTC 2011-12-26 13:40:56

Общее
Полное имя : E:Music Video (Vocal Trance)-2 (2008-2013)Manufactured Superstars & Jeziel Quintela featuring Christian Burns - Silver Splits The Blue.mp4
Формат : MPEG-4
Профиль формата : Base Media / Version 2
Идентификатор кодека : mp42
Размер файла : 168 Мбайт
Продолжительность : 4 м. 28 с.
Режим общего битрейта : Переменный
Общий поток : 5246 Кбит/сек
Дата кодирования : UTC 2012-03-05 14:59:11
Дата пометки : UTC 2012-03-05 14:59:11
gsst : 0
gstd : 268236
gssd : B2E3D9B8BMH1358097101406388
gshh : r8---sn-gvnuxaxjvh-n8vs.c.youtube.com

Видео
Идентификатор : 1
Формат : AVC
Формат/Информация : Advanced Video Codec
Профиль формата : High@L4.0
Параметр CABAC формата : Да
Параметр ReFrames формата : 1 кадр
Идентификатор кодека : avc1
Идентификатор кодека/Информация : Advanced Video Coding
Продолжительность : 4 м. 28 с.
Битрейт : 5091 Кбит/сек
Максимальный битрейт : 11,8 Мбит/сек
Ширина : 1920 пикселей
Высота : 1080 пикселей
Соотношение сторон : 16:9
Режим частоты кадров : Постоянный
Частота кадров : 23,976 кадра/сек
Цветовое пространство : YUV
Субдискретизация насыщенности : 4:2:0
Битовая глубина : 8 бит
Тип развёртки : Прогрессивная
Бит/(Пиксели*Кадры) : 0.102
Размер потока : 163 Мбайт (97%)
Дата пометки : UTC 2012-03-05 14:59:12

Аудио
Идентификатор : 2
Формат : AAC
Формат/Информация : Advanced Audio Codec
Профиль формата : LC
Идентификатор кодека : 40
Продолжительность : 4 м. 28 с.
Вид битрейта : Переменный
Битрейт : 152 Кбит/сек
Максимальный битрейт : 184 Кбит/сек
Каналы : 2 канала
Расположение каналов : Front: L R
Частота : 44,1 КГц
Метод сжатия : С потерями
Размер потока : 4,86 Мбайт (3%)
Заголовок : IsoMedia File Produced by Google, 5-11-2011
Дата кодирования : UTC 2012-03-05 14:59:12
Дата пометки : UTC 2012-03-05 14:59:12

Общее
Полное имя : E:Music Video (Vocal Trance)-2 (2008-2013)Mark Eteson feat. Audrey Gallagher - Breathe On My Own [Official Music Video].mp4
Формат : MPEG-4
Профиль формата : Base Media / Version 2
Идентификатор кодека : mp42
Размер файла : 64,0 Мбайт
Продолжительность : 4 м. 26 с.
Режим общего битрейта : Переменный
Общий поток : 2014 Кбит/сек
Дата кодирования : UTC 2011-07-14 10:47:50
Дата пометки : UTC 2011-07-14 10:47:50
gsst : 0
gstd : 266735
gssd : B2EE8CF47MM1358539779691130
gshh : r4---sn-hxb54vo-304e.c.youtube.com

Видео
Идентификатор : 1
Формат : AVC
Формат/Информация : Advanced Video Codec
Профиль формата : High@L3.1
Параметр CABAC формата : Да
Параметр ReFrames формата : 1 кадр
Параметр GOP формата : M=1, N=30
Идентификатор кодека : avc1
Идентификатор кодека/Информация : Advanced Video Coding
Продолжительность : 4 м. 26 с.
Битрейт : 1861 Кбит/сек
Максимальный битрейт : 3903 Кбит/сек
Ширина : 1280 пикселей
Высота : 720 пикселей
Соотношение сторон : 16:9
Режим частоты кадров : Переменный
Частота кадров : 30,000 кадров/сек
Минимальная частота кадров : 29,412 кадров/сек
Максимальная частота кадров : 55,556 кадров/сек
Цветовое пространство : YUV
Субдискретизация насыщенности : 4:2:0
Битовая глубина : 8 бит
Тип развёртки : Прогрессивная
Бит/(Пиксели*Кадры) : 0.067
Размер потока : 59,2 Мбайт (92%)
Дата пометки : UTC 2011-07-14 10:47:52

Аудио
Идентификатор : 2
Формат : AAC
Формат/Информация : Advanced Audio Codec
Профиль формата : LC
Идентификатор кодека : 40
Продолжительность : 4 м. 26 с.
Вид битрейта : Переменный
Битрейт : 144 Кбит/сек
Максимальный битрейт : 240 Кбит/сек
Каналы : 2 канала
Расположение каналов : Front: L R
Частота : 44,1 КГц
Метод сжатия : С потерями
Размер потока : 4,64 Мбайт (7%)
Заголовок : IsoMedia File Produced by Google, 5-11-2011
Дата кодирования : UTC 2011-07-14 10:47:51
Дата пометки : UTC 2011-07-14 10:47:52

Общее
Полное имя : E:Music Video (Vocal Trance)-2 (2008-2013)Moonbeam feat. Avis Vox - Disappearance (Official video).mp4
Формат : MPEG-4
Профиль формата : Base Media / Version 2
Идентификатор кодека : mp42
Размер файла : 28,5 Мбайт
Продолжительность : 3 м. 8 с.
Режим общего битрейта : Переменный
Общий поток : 1268 Кбит/сек
Дата кодирования : UTC 2012-04-02 14:48:14
Дата пометки : UTC 2012-04-02 14:48:14
gsst : 0
gstd : 188731
gssd : B2E3D9B46MH1358098463957088
gshh : r3---sn-gvnuxaxjvh-n8vl.c.youtube.com

Видео
Идентификатор : 1
Формат : AVC
Формат/Информация : Advanced Video Codec
Профиль формата : High@L3.1
Параметр CABAC формата : Да
Параметр ReFrames формата : 1 кадр
Параметр GOP формата : M=1, N=30
Идентификатор кодека : avc1
Идентификатор кодека/Информация : Advanced Video Coding
Продолжительность : 3 м. 8 с.
Битрейт : 1115 Кбит/сек
Максимальный битрейт : 1759 Кбит/сек
Ширина : 1280 пикселей
Высота : 720 пикселей
Соотношение сторон : 16:9
Режим частоты кадров : Постоянный
Частота кадров : 23,976 кадра/сек
Цветовое пространство : YUV
Субдискретизация насыщенности : 4:2:0
Битовая глубина : 8 бит
Тип развёртки : Прогрессивная
Бит/(Пиксели*Кадры) : 0.050
Размер потока : 25,1 Мбайт (88%)
Дата пометки : UTC 2012-04-02 14:48:14

Аудио
Идентификатор : 2
Формат : AAC
Формат/Информация : Advanced Audio Codec
Профиль формата : LC
Идентификатор кодека : 40
Продолжительность : 3 м. 8 с.
Вид битрейта : Переменный
Битрейт : 150 Кбит/сек
Максимальный битрейт : 199 Кбит/сек
Каналы : 2 канала
Расположение каналов : Front: L R
Частота : 44,1 КГц
Метод сжатия : С потерями
Размер потока : 3,38 Мбайт (12%)
Заголовок : IsoMedia File Produced by Google, 5-11-2011
Дата кодирования : UTC 2012-04-02 14:48:14
Дата пометки : UTC 2012-04-02 14:48:14

Общее
Полное имя : E:Music Video (Vocal Trance)-2 (2008-2013)Moonbeam feat. Pryce Oliver & Avis Vox - What Else Is There (Official Music Video).mp4
Формат : MPEG-4
Профиль формата : Base Media / Version 2
Идентификатор кодека : mp42
Размер файла : 34,2 Мбайт
Продолжительность : 3 м. 42 с.
Режим общего битрейта : Переменный
Общий поток : 1288 Кбит/сек
Дата кодирования : UTC 2012-05-31 09:51:17
Дата пометки : UTC 2012-05-31 09:51:17
gsst : 0
gstd : 222655
gssd : B2E3D9B8BMH1358096636650420
gshh : r8---sn-gvnuxaxjvh-n8vs.c.youtube.com

Видео
Идентификатор : 1
Формат : AVC
Формат/Информация : Advanced Video Codec
Профиль формата : High@L3.1
Параметр CABAC формата : Да
Параметр ReFrames формата : 1 кадр
Идентификатор кодека : avc1
Идентификатор кодека/Информация : Advanced Video Coding
Продолжительность : 3 м. 42 с.
Битрейт : 1134 Кбит/сек
Максимальный битрейт : 8017 Кбит/сек
Ширина : 1280 пикселей
Высота : 720 пикселей
Соотношение сторон : 16:9
Режим частоты кадров : Постоянный
Частота кадров : 23,976 кадра/сек
Цветовое пространство : YUV
Субдискретизация насыщенности : 4:2:0
Битовая глубина : 8 бит
Тип развёртки : Прогрессивная
Бит/(Пиксели*Кадры) : 0.051
Размер потока : 30,1 Мбайт (88%)
Дата пометки : UTC 2012-05-31 09:51:17

Аудио
Идентификатор : 2
Формат : AAC
Формат/Информация : Advanced Audio Codec
Профиль формата : LC
Идентификатор кодека : 40
Продолжительность : 3 м. 42 с.
Вид битрейта : Переменный
Битрейт : 152 Кбит/сек
Максимальный битрейт : 213 Кбит/сек
Каналы : 2 канала
Расположение каналов : Front: L R
Частота : 44,1 КГц
Метод сжатия : С потерями
Размер потока : 4,03 Мбайт (12%)
Заголовок : IsoMedia File Produced by Google, 5-11-2011
Дата кодирования : UTC 2012-05-31 09:51:17
Дата пометки : UTC 2012-05-31 09:51:17

Общее
Полное имя : E:Music Video (Vocal Trance)-2 (2008-2013)Moonbeam with Eitan Carmi feat. Matvey Emerson - Wanderer (Official Video) [Moonbeam Digital].mp4
Формат : MPEG-4
Профиль формата : Base Media / Version 2
Идентификатор кодека : mp42
Размер файла : 29,3 Мбайт
Продолжительность : 2 м. 47 с.
Режим общего битрейта : Переменный
Общий поток : 1466 Кбит/сек
Дата кодирования : UTC 2011-08-31 10:43:28
Дата пометки : UTC 2011-08-31 10:43:28
gsst : 0
gstd : 167706
gssd : B2EE8CF4AHH1358541882070835
gshh : r7---sn-hxb54vo-304e.c.youtube.com

Видео
Идентификатор : 1
Формат : AVC
Формат/Информация : Advanced Video Codec
Профиль формата : High@L3.1
Параметр CABAC формата : Да
Параметр ReFrames формата : 1 кадр
Параметр GOP формата : M=1, N=30
Идентификатор кодека : avc1
Идентификатор кодека/Информация : Advanced Video Coding
Продолжительность : 2 м. 47 с.
Битрейт : 1308 Кбит/сек
Максимальный битрейт : 4946 Кбит/сек
Ширина : 1280 пикселей
Высота : 720 пикселей
Соотношение сторон : 16:9
Режим частоты кадров : Переменный
Частота кадров : 23,976 кадра/сек
Минимальная частота кадров : 23,810 кадра/сек
Максимальная частота кадров : 24,390 кадра/сек
Цветовое пространство : YUV
Субдискретизация насыщенности : 4:2:0
Битовая глубина : 8 бит
Тип развёртки : Прогрессивная
Бит/(Пиксели*Кадры) : 0.059
Размер потока : 26,1 Мбайт (89%)
Дата пометки : UTC 2011-08-31 10:43:29

Аудио
Идентификатор : 2
Формат : AAC
Формат/Информация : Advanced Audio Codec
Профиль формата : LC
Идентификатор кодека : 40
Продолжительность : 2 м. 47 с.
Вид битрейта : Переменный
Битрейт : 152 Кбит/сек
Максимальный битрейт : 188 Кбит/сек
Каналы : 2 канала
Расположение каналов : Front: L R
Частота : 44,1 КГц
Метод сжатия : С потерями
Размер потока : 3,04 Мбайт (10%)
Заголовок : IsoMedia File Produced by Google, 5-11-2011
Дата кодирования : UTC 2011-08-31 10:43:28
Дата пометки : UTC 2011-08-31 10:43:29

Общее
Полное имя : E:Music Video (Vocal Trance)-2 (2008-2013)Mr Sam & Andy Duguid ft. Amanda Wilson - Satisfaction Guaranteed.mp4
Формат : MPEG-4
Профиль формата : Base Media / Version 2
Идентификатор кодека : mp42
Размер файла : 89,7 Мбайт
Продолжительность : 3 м. 24 с.
Режим общего битрейта : Переменный
Общий поток : 3672 Кбит/сек
Дата кодирования : UTC 2010-02-22 14:46:36
Дата пометки : UTC 2010-02-22 14:46:36
gsst : 0
gstd : 205473
gssd : B4A7DDAA5MH1358087635678422
gshh : r5---sn-4g57kued.c.youtube.com

Видео
Идентификатор : 2
Формат : AVC
Формат/Информация : Advanced Video Codec
Профиль формата : High@L4.0
Параметр CABAC формата : Да
Параметр ReFrames формата : 3 кадра
Параметр GOP формата : M=1, N=30
Идентификатор кодека : avc1
Идентификатор кодека/Информация : Advanced Video Coding
Продолжительность : 3 м. 24 с.
Битрейт : 3536 Кбит/сек
Максимальный битрейт : 14,0 Мбит/сек
Ширина : 1920 пикселей
Высота : 1080 пикселей
Соотношение сторон : 16:9
Режим частоты кадров : Постоянный
Частота кадров : 29,970 кадров/сек
Цветовое пространство : YUV
Субдискретизация насыщенности : 4:2:0
Битовая глубина : 8 бит
Тип развёртки : Прогрессивная
Бит/(Пиксели*Кадры) : 0.057
Размер потока : 86,4 Мбайт (96%)
Заголовок : (C) 2007 Google Inc. v08.13.2007.
Дата кодирования : UTC 2010-02-22 14:46:36
Дата пометки : UTC 2010-02-22 14:46:38

Аудио
Идентификатор : 1
Формат : AAC
Формат/Информация : Advanced Audio Codec
Профиль формата : LC
Идентификатор кодека : 40
Продолжительность : 3 м. 24 с.
Вид битрейта : Переменный
Битрейт : 132 Кбит/сек
Максимальный битрейт : 156 Кбит/сек
Каналы : 2 канала
Расположение каналов : Front: L R
Частота : 44,1 КГц
Метод сжатия : С потерями
Размер потока : 3,25 Мбайт (4%)
Заголовок : (C) 2007 Google Inc. v08.13.2007.
Дата кодирования : UTC 2010-02-22 14:46:36
Дата пометки : UTC 2010-02-22 14:46:38

Общее
Полное имя : E:Music Video (Vocal Trance)-2 (2008-2013)Narany feat Krayzee - The Storm (Official Video).mp4
Формат : MPEG-4
Профиль формата : Base Media / Version 2
Идентификатор кодека : mp42
Размер файла : 71,3 Мбайт
Продолжительность : 3 м. 37 с.
Режим общего битрейта : Переменный
Общий поток : 2753 Кбит/сек
Дата кодирования : UTC 2012-09-19 17:03:02
Дата пометки : UTC 2012-09-19 17:03:02
gsst : 0
gstd : 217338
gssd : B2EE8CF4AMH1358603617734921
gshh : r7---sn-hxb54vo-304e.c.youtube.com

Видео
Идентификатор : 1
Формат : AVC
Формат/Информация : Advanced Video Codec
Профиль формата : High@L3.1
Параметр CABAC формата : Да
Параметр ReFrames формата : 1 кадр
Идентификатор кодека : avc1
Идентификатор кодека/Информация : Advanced Video Coding
Продолжительность : 3 м. 37 с.
Битрейт : 2558 Кбит/сек
Максимальный битрейт : 5932 Кбит/сек
Ширина : 1280 пикселей
Высота : 720 пикселей
Соотношение сторон : 16:9
Режим частоты кадров : Постоянный
Частота кадров : 29,970 кадров/сек
Цветовое пространство : YUV
Субдискретизация насыщенности : 4:2:0
Битовая глубина : 8 бит
Тип развёртки : Прогрессивная
Бит/(Пиксели*Кадры) : 0.093
Размер потока : 66,2 Мбайт (93%)
Дата пометки : UTC 2012-09-19 17:03:02

Аудио
Идентификатор : 2
Формат : AAC
Формат/Информация : Advanced Audio Codec
Профиль формата : LC
Идентификатор кодека : 40
Продолжительность : 3 м. 37 с.
Вид битрейта : Переменный
Битрейт : 192 Кбит/сек
Максимальный битрейт : 202 Кбит/сек
Каналы : 2 канала
Расположение каналов : Front: L R
Частота : 44,1 КГц
Метод сжатия : С потерями
Размер потока : 4,97 Мбайт (7%)
Заголовок : IsoMedia File Produced by Google, 5-11-2011
Дата кодирования : UTC 2012-09-19 17:03:02
Дата пометки : UTC 2012-09-19 17:03:02

Общее
Полное имя : E:Music Video (Vocal Trance)-2 (2008-2013)Natalie Exland - Капли (Видеоклип, Vocal Trance 2012, Official).mp4
Формат : MPEG-4
Профиль формата : Base Media / Version 2
Идентификатор кодека : mp42
Размер файла : 216 Мбайт
Продолжительность : 5 м. 49 с.
Режим общего битрейта : Переменный
Общий поток : 5189 Кбит/сек
Дата кодирования : UTC 2013-01-09 18:02:45
Дата пометки : UTC 2013-01-09 18:02:45
gsst : 0
gstd : 350086
gssd : B2EE8CF4BMM1358579099554767
gshh : r8---sn-hxb54vo-304e.c.youtube.com

Видео
Идентификатор : 1
Формат : AVC
Формат/Информация : Advanced Video Codec
Профиль формата : High@L4.0
Параметр CABAC формата : Да
Параметр ReFrames формата : 1 кадр
Идентификатор кодека : avc1
Идентификатор кодека/Информация : Advanced Video Coding
Продолжительность : 5 м. 49 с.
Битрейт : 4995 Кбит/сек
Максимальный битрейт : 12,7 Мбит/сек
Ширина : 1920 пикселей
Высота : 1080 пикселей
Соотношение сторон : 16:9
Режим частоты кадров : Постоянный
Частота кадров : 24,000 кадра/сек
Цветовое пространство : YUV
Субдискретизация насыщенности : 4:2:0
Битовая глубина : 8 бит
Тип развёртки : Прогрессивная
Бит/(Пиксели*Кадры) : 0.100
Размер потока : 208 Мбайт (96%)
Дата пометки : UTC 2013-01-09 18:02:45

Аудио
Идентификатор : 2
Формат : AAC
Формат/Информация : Advanced Audio Codec
Профиль формата : LC
Идентификатор кодека : 40
Продолжительность : 5 м. 49 с.
Вид битрейта : Переменный
Битрейт : 192 Кбит/сек
Максимальный битрейт : 202 Кбит/сек
Каналы : 2 канала
Расположение каналов : Front: L R
Частота : 44,1 КГц
Метод сжатия : С потерями
Размер потока : 8,01 Мбайт (4%)
Заголовок : IsoMedia File Produced by Google, 5-11-2011
Дата кодирования : UTC 2013-01-09 18:02:45
Дата пометки : UTC 2013-01-09 18:02:45

Общее
Полное имя : E:Music Video (Vocal Trance)-2 (2008-2013)Nektarios & Kirsty Hawkshaw - Dawn (Cold Blue Remix Edit) Official Video Future Trance Vol. 58.mp4
Формат : MPEG-4
Профиль формата : Base Media / Version 2
Идентификатор кодека : mp42
Размер файла : 62,4 Мбайт
Продолжительность : 3 м. 36 с.
Режим общего битрейта : Переменный
Общий поток : 2421 Кбит/сек
Дата кодирования : UTC 2012-05-17 22:24:47
Дата пометки : UTC 2012-05-17 22:24:47
gsst : 0
gstd : 216246
gssd : B2EE8CF4BMH1358541461435627
gshh : r8---sn-hxb54vo-304e.c.youtube.com

Видео
Идентификатор : 1
Формат : AVC
Формат/Информация : Advanced Video Codec
Профиль формата : High@L3.1
Параметр CABAC формата : Да
Параметр ReFrames формата : 1 кадр
Параметр GOP формата : M=1, N=30
Идентификатор кодека : avc1
Идентификатор кодека/Информация : Advanced Video Coding
Продолжительность : 3 м. 36 с.
Битрейт : 2266 Кбит/сек
Максимальный битрейт : 8954 Кбит/сек
Ширина : 1280 пикселей
Высота : 720 пикселей
Соотношение сторон : 16:9
Режим частоты кадров : Постоянный
Частота кадров : 24,000 кадра/сек
Цветовое пространство : YUV
Субдискретизация насыщенности : 4:2:0
Битовая глубина : 8 бит
Тип развёртки : Прогрессивная
Бит/(Пиксели*Кадры) : 0.102
Размер потока : 58,4 Мбайт (94%)
Дата пометки : UTC 2012-05-17 22:24:47

Аудио
Идентификатор : 2
Формат : AAC
Формат/Информация : Advanced Audio Codec
Профиль формата : LC
Идентификатор кодека : 40
Продолжительность : 3 м. 36 с.
Вид битрейта : Переменный
Битрейт : 152 Кбит/сек
Максимальный битрейт : 185 Кбит/сек
Каналы : 2 канала
Расположение каналов : Front: L R
Частота : 44,1 КГц
Метод сжатия : С потерями
Размер потока : 3,91 Мбайт (6%)
Заголовок : IsoMedia File Produced by Google, 5-11-2011
Дата кодирования : UTC 2012-05-17 22:24:47
Дата пометки : UTC 2012-05-17 22:24:47

Общее
Полное имя : E:Music Video (Vocal Trance)-2 (2008-2013)Paul Oakenfold feat. Matt Goss - Firefly (Official Music Video).mp4
Формат : MPEG-4
Профиль формата : Base Media / Version 2
Идентификатор кодека : mp42
Размер файла : 54,3 Мбайт
Продолжительность : 3 м. 18 с.
Режим общего битрейта : Переменный
Общий поток : 2293 Кбит/сек
Дата кодирования : UTC 2011-01-17 09:13:58
Дата пометки : UTC 2011-01-17 09:13:58
gsst : 0
gstd : 198720
gssd : B2EE8CF49MH1358542511885689
gshh : r6---sn-hxb54vo-304e.c.youtube.com

Видео
Идентификатор : 1
Формат : AVC
Формат/Информация : Advanced Video Codec
Профиль формата : High@L4.0
Параметр CABAC формата : Да
Параметр ReFrames формата : 1 кадр
Параметр GOP формата : M=1, N=25
Идентификатор кодека : avc1
Идентификатор кодека/Информация : Advanced Video Coding
Продолжительность : 3 м. 18 с.
Битрейт : 2164 Кбит/сек
Максимальный битрейт : 5492 Кбит/сек
Ширина : 1920 пикселей
Высота : 1080 пикселей
Соотношение сторон : 16:9
Режим частоты кадров : Постоянный
Частота кадров : 25,000 кадров/сек
Цветовое пространство : YUV
Субдискретизация насыщенности : 4:2:0
Битовая глубина : 8 бит
Тип развёртки : Прогрессивная
Бит/(Пиксели*Кадры) : 0.042
Размер потока : 51,3 Мбайт (94%)
Дата пометки : UTC 2011-01-17 09:14:08

Аудио
Идентификатор : 2
Формат : AAC
Формат/Информация : Advanced Audio Codec
Профиль формата : LC
Идентификатор кодека : 40
Продолжительность : 3 м. 18 с.
Вид битрейта : Переменный
Битрейт : 125 Кбит/сек
Максимальный битрейт : 143 Кбит/сек
Каналы : 2 канала
Расположение каналов : Front: L R
Частота : 44,1 КГц
Метод сжатия : С потерями
Размер потока : 2,96 Мбайт (5%)
Заголовок : (C) 2007 Google Inc. v08.13.2007.
Дата кодирования : UTC 2011-01-17 09:14:03
Дата пометки : UTC 2011-01-17 09:14:08

Общее
Полное имя : E:Music Video (Vocal Trance)-2 (2008-2013)Paul Vinitsky & Fisher - One Heart [OFFICIAL VIDEO] (trance, vocal, progressive).mp4
Формат : MPEG-4
Профиль формата : Base Media / Version 2
Идентификатор кодека : mp42
Размер файла : 50,2 Мбайт
Продолжительность : 3 м. 28 с.
Режим общего битрейта : Переменный
Общий поток : 2021 Кбит/сек
Дата кодирования : UTC 2012-12-19 12:51:19
Дата пометки : UTC 2012-12-19 12:51:19
gsst : 0
gstd : 208328
gssd : B2EE8CF47MH1358539490458710
gshh : r4---sn-hxb54vo-304e.c.youtube.com

Видео
Идентификатор : 1
Формат : AVC
Формат/Информация : Advanced Video Codec
Профиль формата : High@L3.1
Параметр CABAC формата : Да
Параметр ReFrames формата : 1 кадр
Идентификатор кодека : avc1
Идентификатор кодека/Информация : Advanced Video Coding
Продолжительность : 3 м. 28 с.
Битрейт : 1827 Кбит/сек
Максимальный битрейт : 6172 Кбит/сек
Ширина : 1280 пикселей
Высота : 720 пикселей
Соотношение сторон : 16:9
Режим частоты кадров : Постоянный
Частота кадров : 29,970 кадров/сек
Цветовое пространство : YUV
Субдискретизация насыщенности : 4:2:0
Битовая глубина : 8 бит
Тип развёртки : Прогрессивная
Бит/(Пиксели*Кадры) : 0.066
Размер потока : 45,3 Мбайт (90%)
Дата пометки : UTC 2012-12-19 12:51:19

Аудио
Идентификатор : 2
Формат : AAC
Формат/Информация : Advanced Audio Codec
Профиль формата : LC
Идентификатор кодека : 40
Продолжительность : 3 м. 28 с.
Вид битрейта : Переменный
Битрейт : 192 Кбит/сек
Максимальный битрейт : 202 Кбит/сек
Каналы : 2 канала
Расположение каналов : Front: L R
Частота : 44,1 КГц
Метод сжатия : С потерями
Размер потока : 4,76 Мбайт (9%)
Заголовок : IsoMedia File Produced by Google, 5-11-2011
Дата кодирования : UTC 2012-12-19 12:51:19
Дата пометки : UTC 2012-12-19 12:51:19

Общее
Полное имя : E:Music Video (Vocal Trance)-2 (2008-2013)Richard Durand - Always The Sun (Music Video).mp4
Формат : MPEG-4
Профиль формата : Base Media / Version 2
Идентификатор кодека : mp42
Размер файла : 48,4 Мбайт
Продолжительность : 3 м. 10 с.
Режим общего битрейта : Переменный
Общий поток : 2128 Кбит/сек
Дата кодирования : UTC 2009-05-11 09:58:37
Дата пометки : UTC 2009-05-11 09:58:37
gsst : 0
gstd : 191378
gssd : B2E1CF744HH1358088027359444
gshh : r1---sn-2apm-f5fr.c.youtube.com

Видео
Идентификатор : 2
Формат : AVC
Формат/Информация : Advanced Video Codec
Профиль формата : High@L3.1
Параметр CABAC формата : Да
Параметр ReFrames формата : 3 кадра
Идентификатор кодека : avc1
Идентификатор кодека/Информация : Advanced Video Coding
Продолжительность : 3 м. 10 с.
Битрейт : 2001 Кбит/сек
Максимальный битрейт : 3730 Кбит/сек
Ширина : 1280 пикселей
Высота : 720 пикселей
Соотношение сторон : 16:9
Режим частоты кадров : Постоянный
Частота кадров : 25,000 кадров/сек
Цветовое пространство : YUV
Субдискретизация насыщенности : 4:2:0
Битовая глубина : 8 бит
Тип развёртки : Прогрессивная
Бит/(Пиксели*Кадры) : 0.087
Размер потока : 45,5 Мбайт (94%)
Заголовок : (C) 2007 Google Inc. v08.13.2007.
Дата кодирования : UTC 2009-05-11 09:58:38
Дата пометки : UTC 2009-05-11 09:58:39

Аудио
Идентификатор : 1
Формат : AAC
Формат/Информация : Advanced Audio Codec
Профиль формата : LC
Идентификатор кодека : 40
Продолжительность : 3 м. 10 с.
Вид битрейта : Переменный
Битрейт : 125 Кбит/сек
Максимальный битрейт : 251 Кбит/сек
Каналы : 2 канала
Расположение каналов : Front: L R
Частота : 44,1 КГц
Метод сжатия : С потерями
Размер потока : 2,85 Мбайт (6%)
Заголовок : (C) 2007 Google Inc. v08.13.2007.
Дата кодирования : UTC 2009-05-11 09:58:37
Дата пометки : UTC 2009-05-11 09:58:39

Общее
Полное имя : E:Music Video (Vocal Trance)-2 (2008-2013)Roma Pafos feat. Sunblind - For A Second (Official Music Video).mp4
Формат : MPEG-4
Профиль формата : Base Media / Version 2
Идентификатор кодека : mp42
Размер файла : 99,5 Мбайт
Продолжительность : 3 м. 32 с.
Режим общего битрейта : Переменный
Общий поток : 3934 Кбит/сек
Дата кодирования : UTC 2012-12-16 23:44:01
Дата пометки : UTC 2012-12-16 23:44:01
gsst : 0
gstd : 212300
gssd : B2EE8CF48HH1358540064729695
gshh : r5---sn-hxb54vo-304e.c.youtube.com

Видео
Идентификатор : 1
Формат : AVC
Формат/Информация : Advanced Video Codec
Профиль формата : High@L4.0
Параметр CABAC формата : Да
Параметр ReFrames формата : 1 кадр
Идентификатор кодека : avc1
Идентификатор кодека/Информация : Advanced Video Coding
Продолжительность : 3 м. 32 с.
Битрейт : 3740 Кбит/сек
Максимальный битрейт : 8393 Кбит/сек
Ширина : 1920 пикселей
Высота : 1080 пикселей
Соотношение сторон : 16:9
Режим частоты кадров : Постоянный
Частота кадров : 25,000 кадров/сек
Цветовое пространство : YUV
Субдискретизация насыщенности : 4:2:0
Битовая глубина : 8 бит
Тип развёртки : Прогрессивная
Бит/(Пиксели*Кадры) : 0.072
Размер потока : 94,6 Мбайт (95%)
Дата пометки : UTC 2012-12-16 23:44:01

Аудио
Идентификатор : 2
Формат : AAC
Формат/Информация : Advanced Audio Codec
Профиль формата : LC
Идентификатор кодека : 40
Продолжительность : 3 м. 32 с.
Вид битрейта : Переменный
Битрейт : 192 Кбит/сек
Максимальный битрейт : 201 Кбит/сек
Каналы : 2 канала
Расположение каналов : Front: L R
Частота : 44,1 КГц
Метод сжатия : С потерями
Размер потока : 4,86 Мбайт (5%)
Заголовок : IsoMedia File Produced by Google, 5-11-2011
Дата кодирования : UTC 2012-12-16 23:44:01
Дата пометки : UTC 2012-12-16 23:44:01

Общее
Полное имя : E:Music Video (Vocal Trance)-2 (2008-2013)Two One feat. Anthya - The End Is Over (Radio Edit) [Music Video].mp4
Формат : MPEG-4
Профиль формата : Base Media / Version 2
Идентификатор кодека : mp42
Размер файла : 37,2 Мбайт
Продолжительность : 3 м. 44 с.
Режим общего битрейта : Переменный
Общий поток : 1393 Кбит/сек
Дата кодирования : UTC 2012-11-25 23:26:13
Дата пометки : UTC 2012-11-25 23:26:13
gsst : 0
gstd : 224396
gssd : B2EE8CF44MH1358573134906251
gshh : r1---sn-hxb54vo-304e.c.youtube.com

Видео
Идентификатор : 1
Формат : AVC
Формат/Информация : Advanced Video Codec
Профиль формата : High@L3.1
Параметр CABAC формата : Да
Параметр ReFrames формата : 1 кадр
Идентификатор кодека : avc1
Идентификатор кодека/Информация : Advanced Video Coding
Продолжительность : 3 м. 44 с.
Битрейт : 1199 Кбит/сек
Максимальный битрейт : 5467 Кбит/сек
Ширина : 1280 пикселей
Высота : 720 пикселей
Соотношение сторон : 16:9
Режим частоты кадров : Постоянный
Частота кадров : 29,970 кадров/сек
Цветовое пространство : YUV
Субдискретизация насыщенности : 4:2:0
Битовая глубина : 8 бит
Тип развёртки : Прогрессивная
Бит/(Пиксели*Кадры) : 0.043
Размер потока : 32,0 Мбайт (86%)
Дата пометки : UTC 2012-11-25 23:26:13

Аудио
Идентификатор : 2
Формат : AAC
Формат/Информация : Advanced Audio Codec
Профиль формата : LC
Идентификатор кодека : 40
Продолжительность : 3 м. 44 с.
Вид битрейта : Переменный
Битрейт : 192 Кбит/сек
Максимальный битрейт : 201 Кбит/сек
Каналы : 2 канала
Расположение каналов : Front: L R
Частота : 44,1 КГц
Метод сжатия : С потерями
Размер потока : 5,13 Мбайт (14%)
Заголовок : IsoMedia File Produced by Google, 5-11-2011
Дата кодирования : UTC 2012-11-25 23:26:13
Дата пометки : UTC 2012-11-25 23:26:13

Общее
Полное имя : E:Music Video (Vocal Trance)-2 (2008-2013)Victoria Aitken - Weekend Lover (Official Music Video).mp4
Формат : MPEG-4
Профиль формата : Base Media / Version 2
Идентификатор кодека : mp42
Размер файла : 43,6 Мбайт
Продолжительность : 3 м. 52 с.
Режим общего битрейта : Переменный
Общий поток : 1571 Кбит/сек
Дата кодирования : UTC 2012-08-28 13:15:32
Дата пометки : UTC 2012-08-28 13:15:32
gsst : 0
gstd : 232756
gssd : B2EE8CF4BHH1358088969300200
gshh : r8---sn-hxb54vo-304e.c.youtube.com

Видео
Идентификатор : 1
Формат : AVC
Формат/Информация : Advanced Video Codec
Профиль формата : High@L3.1
Параметр CABAC формата : Да
Параметр ReFrames формата : 1 кадр
Идентификатор кодека : avc1
Идентификатор кодека/Информация : Advanced Video Coding
Продолжительность : 3 м. 52 с.
Битрейт : 1376 Кбит/сек
Максимальный битрейт : 2371 Кбит/сек
Ширина : 1280 пикселей
Высота : 720 пикселей
Соотношение сторон : 16:9
Режим частоты кадров : Постоянный
Частота кадров : 23,976 кадра/сек
Цветовое пространство : YUV
Субдискретизация насыщенности : 4:2:0
Битовая глубина : 8 бит
Тип развёртки : Прогрессивная
Бит/(Пиксели*Кадры) : 0.062
Размер потока : 38,2 Мбайт (88%)
Дата пометки : UTC 2012-08-28 13:15:32

Аудио
Идентификатор : 2
Формат : AAC
Формат/Информация : Advanced Audio Codec
Профиль формата : LC
Идентификатор кодека : 40
Продолжительность : 3 м. 52 с.
Вид битрейта : Переменный
Битрейт : 192 Кбит/сек
Максимальный битрейт : 201 Кбит/сек
Каналы : 2 канала
Расположение каналов : Front: L R
Частота : 44,1 КГц
Метод сжатия : С потерями
Размер потока : 5,32 Мбайт (12%)
Заголовок : IsoMedia File Produced by Google, 5-11-2011
Дата кодирования : UTC 2012-08-28 13:15:32
Дата пометки : UTC 2012-08-28 13:15:32

Общее
Полное имя : E:Music Video (Vocal Trance)-2 (2008-2013)Zaa feat Molly - Surrender [Official Video](Original Club Mix) [LoveRush Digital].mp4
Формат : MPEG-4
Профиль формата : Base Media / Version 2
Идентификатор кодека : mp42
Размер файла : 97,6 Мбайт
Продолжительность : 7 м. 0 с.
Режим общего битрейта : Переменный
Общий поток : 1947 Кбит/сек
Дата кодирования : UTC 2011-03-20 16:42:33
Дата пометки : UTC 2011-03-20 16:42:33
gsst : 0
gstd : 420516
gssd : B2EE8CF44MH1358541129359211
gshh : r1---sn-hxb54vo-304e.c.youtube.com

Видео
Идентификатор : 1
Формат : AVC
Формат/Информация : Advanced Video Codec
Профиль формата : High@L3.1
Параметр CABAC формата : Да
Параметр ReFrames формата : 1 кадр
Параметр GOP формата : M=1, N=30
Идентификатор кодека : avc1
Идентификатор кодека/Информация : Advanced Video Coding
Продолжительность : 7 м. 0 с.
Битрейт : 1813 Кбит/сек
Максимальный битрейт : 8052 Кбит/сек
Ширина : 1280 пикселей
Высота : 720 пикселей
Соотношение сторон : 16:9
Режим частоты кадров : Переменный
Частота кадров : 29,970 кадров/сек
Минимальная частота кадров : 29,412 кадров/сек
Максимальная частота кадров : 200,000 кадров/сек
Цветовое пространство : YUV
Субдискретизация насыщенности : 4:2:0
Битовая глубина : 8 бит
Тип развёртки : Прогрессивная
Бит/(Пиксели*Кадры) : 0.066
Размер потока : 90,9 Мбайт (93%)
Дата пометки : UTC 2011-03-20 16:42:57

Аудио
Идентификатор : 2
Формат : AAC
Формат/Информация : Advanced Audio Codec
Профиль формата : LC
Идентификатор кодека : 40
Продолжительность : 7 м. 0 с.
Вид битрейта : Переменный
Битрейт : 128 Кбит/сек
Максимальный битрейт : 156 Кбит/сек
Каналы : 2 канала
Расположение каналов : Front: L R
Частота : 44,1 КГц
Метод сжатия : С потерями
Размер потока : 6,41 Мбайт (7%)
Заголовок : (C) 2007 Google Inc. v08.13.2007.
Дата кодирования : UTC 2011-03-20 16:42:47
Дата пометки : UTC 2011-03-20 16:42:57


pb.wtf



Скачать Сборник видеоклипов через торрент http://pic.kartinco.top/images/2/v156xeae7c.jpg Скачать фильм Сборник видеоклипов через торрент бесплантно в хорошем качестве Треклист:Above & Beyond feat. Zoe Johnston - Alchemy (Official Music Video)Aelyn - Believe In Us (Official Music Video)ATB feat. ... 10 10 9
Info! Золотая раздача, скачанное не засчитывается.
Торрент: Зарегистрирован [2013-03-14 15:30] · скачан: 282 раз
Статус: √ проверено
Размер: 3 GB
Как cкачать? Как скачать Сборник видеоклипов через торрент | UTorrent

28-11-2019 20:33  

Отключить всю рекламу на сайте

    Дорогой пользователь! Огромная просьба, поблагодарите релизера, оцените раздачу и оставьте свои комментарий, если Вы скачали Сборник видеоклипов через торрент бесплатно! Внесите свою лепту в развитие PiratBit!
    Комментировать посты могут только пользователи прошедшие не сложную регистрацию
    Показать сообщения:    

    Сборник видеоклипов через торрент
    Скачать бесплатно Сборник видеоклипов
    Сборник видеоклипов скачать торрент
    Сборник видеоклипов смотреть онлайн
    Cкачать фильм Сборник видеоклипов бесплатно
    Сборник видеоклипов скачать торрент в хорошем качестве
    Сборник видеоклипов смотреть онлайн бесплатно в хорошем качестве


    Вы не можете начинать темы
    Вы не можете отвечать на сообщения
    Вы не можете редактировать свои сообщения
    Вы не можете удалять свои сообщения
    Вы не можете голосовать в опросах
    Вы не можете прикреплять файлы к сообщениям
    Вы можете скачивать файлы