2 сезон

iTunes

MVO

1

2 сезон

iTunes

iTunes

1 сезон

RePack

30

Новинка

ВАЖНО

ИГРА 18+

pack

RePack

MK11
pack

Легкие деньги

RePack

jed

RePack

fifa19

RePack

RDR2

RePack

NEED FOR SPEED™ PAYBACK

4 сезон

9 сезон

Бесстыжие 9 сезон

Все сериалы

все сериалы на PB.wtf

RePack

FAR CRY 5

Anonymous, доброй ночи, мы не успеваем собрать деньги на оплату серверов за декабрь и январь, помогите нам пожалуйста в это трудное время. В качестве благодарности мы отключим Вам всю рекламу на сайте (укажите свой ник в строку Ваше имя)!

×
  
Magnet ссылка

Сборник видеоклипов / Music Video vol.4 [2008-2013 г., Trance, WEB-DLRip] pb.wtf

Сборник видеоклипов через торрент pb.wtf

Размер: 3.1 GB | Добавлен: 7 лет 10 мес. назад | Торрент скачан:216 раз
Скачать  

16-03-2013 18:09 Сборник видеоклипов Скачать торрент  

Сборник видеоклипов / Music Video vol.4
Год выпуска: 20008-2013
Страна: All World
Жанр: Trance
Продолжительность: 02:30:12
1.Alex Oshean - Never the same (Official Music Video)
2.Aligator Feat. Daniel Kandi - The Perfect Match (Official Music Video)
3.Allure ft. Christian Burns - On the wire (Official Music Video)
4.Armin van Buuren feat. Fiora - Waiting For The Night (Official International Music Video)
5.C-Systems - Heat (Abstract Vision & Elite Electronic Bootleg) (Official Music Video)
6.Denis Kenzo feat. Sveta B. - Lullaby Lonely (Cold Rush Bootleg) (Official Music Video)
7.Denis Kenzo feat. Sveta B. - Lullaby Lonely (Official Music Video)
8.Dennis Sheperd - Edge of the World (Official Music Video)
9.Di Land - In The Club (Official Music Video)
10.Ela Rose & Dj Gino Manzotti - No U No Love (Official Music Video)
11.Ellie Lawson & Matt Bukovski - Breathe In Breathe Out (Official Music Video)
12.Frozen Skies feat. Yana Vetrova - Coming Back (Official Music Video)
13.Gabriel & Dresden feat. Betsie Larkin - Play It Back (Maor Levi Remix) (Official Music Video)
14.Jasmine June - Calling (Official Music Video)
15.Jaytech feat. Steve Smith - Stranger (Official Music Video)
16.Jes - Lovesong (Official Music Video)
17.Kimerik Blaze - Memories (Official Music Video)
18.Kirsty - Free Of War (Official Music Video)
19.Lence & Pluton - Forget It (Gradian Remix) (Official Music Video)
20.Linnea Schossow - Someone Like You (Official Music Video)
21.Milk Inc - Blackout (Official Music Video)
22.Milk Inc. - Storm (Official Music Video)
23.Natalie Exland - In other world (Official Music Video)
24.Nitrous Oxide feat. Aneym - Follow You (Official Music Video)
25.Ruta feat.Three Faces - City Of Love (Official Music Video)
26.Sean Bay & Tiff Lacey - Moon In The Dark (Official Music Video)
27.Sean Bay feat. Antonia Lucas - Leave This World Behind (Official Music Video)
28.Sean Bay feat. Shahzoda - Flying Tonight (Official Music Video)
29.Sean Bay vs. Mehdi Mouelhi feat. Arabella - Maktoub (Official Music Video)
30.Starkillers feat. Richard Beynon & Natalie Peris - What Does Tomorrow Bring (Official Music Video)
31.Tenishia feat. Chris Jones - Memory of a Dream (Official Music Video)
32.Tosch feat. Pit Bailay - Can't Touch You Adrienne (Frozen Skies Remix) (Official Music Video)
33.Trentemoller- Moan (Official music video)
34.tyDi feat. Sarah Howells - When I Go (Official Music Video)
Качество: WEB-DLRip
Формат: MPEG-4
Видео кодек: H.26x
Аудио кодек: AAC
Аудио#1: 1280x720,1920x1080; 23,976 кадра/сек - 30,000 кадров/сек; ~ 4000 Кбит/сек
Аудио#2: AAC, 2.0, ~192 Кбит/сек"Скриншоты"скриншот   скриншот   скриншот   скриншот  
скриншот   скриншот   скриншот   скриншот  

Общее
Полное имя : E:Music Video (Vocal Trance)-4 (2008-2013)Alex Oshean - Never the same (Official video clip).mp4
Формат : MPEG-4
Профиль формата : Base Media / Version 2
Идентификатор кодека : mp42
Размер файла : 54,9 Мбайт
Продолжительность : 3 м. 15 с.
Режим общего битрейта : Переменный
Общий поток : 2350 Кбит/сек
Дата кодирования : UTC 2012-03-16 14:34:13
Дата пометки : UTC 2012-03-16 14:34:13
gsst : 0
gstd : 195998
gssd : B4A7DDAE1MH1359781433413091
gshh : r1---sn-4g57kuer.c.youtube.com

Видео
Идентификатор : 1
Формат : AVC
Формат/Информация : Advanced Video Codec
Профиль формата : High@L3.1
Параметр CABAC формата : Да
Параметр ReFrames формата : 1 кадр
Идентификатор кодека : avc1
Идентификатор кодека/Информация : Advanced Video Coding
Продолжительность : 3 м. 15 с.
Битрейт : 2195 Кбит/сек
Максимальный битрейт : 7403 Кбит/сек
Ширина : 1280 пикселей
Высота : 720 пикселей
Соотношение сторон : 16:9
Режим частоты кадров : Постоянный
Частота кадров : 29,970 кадров/сек
Цветовое пространство : YUV
Субдискретизация насыщенности : 4:2:0
Битовая глубина : 8 бит
Тип развёртки : Прогрессивная
Бит/(Пиксели*Кадры) : 0.079
Размер потока : 51,3 Мбайт (93%)
Дата пометки : UTC 2012-03-16 14:34:13

Аудио
Идентификатор : 2
Формат : AAC
Формат/Информация : Advanced Audio Codec
Профиль формата : LC
Идентификатор кодека : 40
Продолжительность : 3 м. 15 с.
Вид битрейта : Переменный
Битрейт : 152 Кбит/сек
Максимальный битрейт : 223 Кбит/сек
Каналы : 2 канала
Расположение каналов : Front: L R
Частота : 44,1 КГц
Метод сжатия : С потерями
Размер потока : 3,55 Мбайт (6%)
Заголовок : IsoMedia File Produced by Google, 5-11-2011
Дата кодирования : UTC 2012-03-16 14:34:13
Дата пометки : UTC 2012-03-16 14:34:13

Общее
Полное имя : E:Music Video (Vocal Trance)-4 (2008-2013)Aligator Feat. Daniel Kandi - The Perfect Match.mp4
Формат : MPEG-4
Профиль формата : Base Media / Version 2
Идентификатор кодека : mp42
Размер файла : 40,0 Мбайт
Продолжительность : 4 м. 22 с.
Режим общего битрейта : Переменный
Общий поток : 1281 Кбит/сек
Дата кодирования : UTC 2012-06-02 22:56:13
Дата пометки : UTC 2012-06-02 22:56:13
gsst : 0
gstd : 262130
gssd : BADC23A68HH1360424375027874
gshh : r8---sn-n8v7ln7y.c.youtube.com

Видео
Идентификатор : 1
Формат : AVC
Формат/Информация : Advanced Video Codec
Профиль формата : High@L3.1
Параметр CABAC формата : Да
Параметр ReFrames формата : 1 кадр
Параметр GOP формата : M=1, N=30
Идентификатор кодека : avc1
Идентификатор кодека/Информация : Advanced Video Coding
Продолжительность : 4 м. 22 с.
Битрейт : 1129 Кбит/сек
Максимальный битрейт : 2606 Кбит/сек
Ширина : 1280 пикселей
Высота : 720 пикселей
Соотношение сторон : 16:9
Режим частоты кадров : Постоянный
Частота кадров : 25,000 кадров/сек
Цветовое пространство : YUV
Субдискретизация насыщенности : 4:2:0
Битовая глубина : 8 бит
Тип развёртки : Прогрессивная
Бит/(Пиксели*Кадры) : 0.049
Размер потока : 35,3 Мбайт (88%)
Дата пометки : UTC 2012-06-02 22:56:14

Аудио
Идентификатор : 2
Формат : AAC
Формат/Информация : Advanced Audio Codec
Профиль формата : LC
Идентификатор кодека : 40
Продолжительность : 4 м. 21 с.
Вид битрейта : Переменный
Битрейт : 150 Кбит/сек
Максимальный битрейт : 199 Кбит/сек
Каналы : 2 канала
Расположение каналов : Front: L R
Частота : 44,1 КГц
Метод сжатия : С потерями
Размер потока : 4,69 Мбайт (12%)
Заголовок : IsoMedia File Produced by Google, 5-11-2011
Дата кодирования : UTC 2012-06-02 22:56:14
Дата пометки : UTC 2012-06-02 22:56:14

Общее
Полное имя : E:Music Video (Vocal Trance)-4 (2008-2013)Allure ft. Christian Burns - On the wire (Official video).mp4
Формат : MPEG-4
Профиль формата : Base Media / Version 2
Идентификатор кодека : mp42
Размер файла : 73,8 Мбайт
Продолжительность : 4 м. 22 с.
Режим общего битрейта : Переменный
Общий поток : 2359 Кбит/сек
Дата кодирования : UTC 2011-09-20 20:24:43
Дата пометки : UTC 2011-09-20 20:24:43
gsst : 0
gstd : 262440
gssd : BD9774F09MH1359210431511849
gshh : r6---sn-2apm-f5fy.c.youtube.com

Видео
Идентификатор : 1
Формат : AVC
Формат/Информация : Advanced Video Codec
Профиль формата : High@L3.1
Параметр CABAC формата : Да
Параметр ReFrames формата : 1 кадр
Идентификатор кодека : avc1
Идентификатор кодека/Информация : Advanced Video Coding
Продолжительность : 4 м. 22 с.
Битрейт : 2202 Кбит/сек
Максимальный битрейт : 5507 Кбит/сек
Ширина : 1280 пикселей
Высота : 720 пикселей
Соотношение сторон : 16:9
Режим частоты кадров : Постоянный
Частота кадров : 25,000 кадров/сек
Цветовое пространство : YUV
Субдискретизация насыщенности : 4:2:0
Битовая глубина : 8 бит
Тип развёртки : Прогрессивная
Бит/(Пиксели*Кадры) : 0.096
Размер потока : 68,9 Мбайт (93%)
Дата пометки : UTC 2011-09-20 20:24:45

Аудио
Идентификатор : 2
Формат : AAC
Формат/Информация : Advanced Audio Codec
Профиль формата : LC
Идентификатор кодека : 40
Продолжительность : 4 м. 22 с.
Вид битрейта : Переменный
Битрейт : 152 Кбит/сек
Максимальный битрейт : 184 Кбит/сек
Каналы : 2 канала
Расположение каналов : Front: L R
Частота : 44,1 КГц
Метод сжатия : С потерями
Размер потока : 4,75 Мбайт (6%)
Заголовок : IsoMedia File Produced by Google, 5-11-2011
Дата кодирования : UTC 2011-09-20 20:24:44
Дата пометки : UTC 2011-09-20 20:24:45

Общее
Полное имя : E:Music Video (Vocal Trance)-4 (2008-2013)Armin van Buuren feat. Fiora - Waiting For The Night (Official International Music Video).mp4
Формат : MPEG-4
Профиль формата : Base Media / Version 2
Идентификатор кодека : mp42
Размер файла : 100 Мбайт
Продолжительность : 3 м. 18 с.
Режим общего битрейта : Переменный
Общий поток : 4233 Кбит/сек
Дата кодирования : UTC 2013-01-28 10:52:46
Дата пометки : UTC 2013-01-28 10:52:46
gsst : 0
gstd : 198413
gssd : BD075E00AHH1359552192349684
gshh : r7---sn-2apm-f5fs.c.youtube.com

Видео
Идентификатор : 1
Формат : AVC
Формат/Информация : Advanced Video Codec
Профиль формата : High@L4.0
Параметр CABAC формата : Да
Параметр ReFrames формата : 1 кадр
Идентификатор кодека : avc1
Идентификатор кодека/Информация : Advanced Video Coding
Продолжительность : 3 м. 18 с.
Битрейт : 4038 Кбит/сек
Максимальный битрейт : 11,2 Мбит/сек
Ширина : 1920 пикселей
Высота : 1080 пикселей
Соотношение сторон : 16:9
Режим частоты кадров : Постоянный
Частота кадров : 25,000 кадров/сек
Цветовое пространство : YUV
Субдискретизация насыщенности : 4:2:0
Битовая глубина : 8 бит
Тип развёртки : Прогрессивная
Бит/(Пиксели*Кадры) : 0.078
Размер потока : 95,4 Мбайт (95%)
Дата пометки : UTC 2013-01-28 10:52:46

Аудио
Идентификатор : 2
Формат : AAC
Формат/Информация : Advanced Audio Codec
Профиль формата : LC
Идентификатор кодека : 40
Продолжительность : 3 м. 18 с.
Вид битрейта : Переменный
Битрейт : 192 Кбит/сек
Максимальный битрейт : 202 Кбит/сек
Каналы : 2 канала
Расположение каналов : Front: L R
Частота : 44,1 КГц
Метод сжатия : С потерями
Размер потока : 4,54 Мбайт (5%)
Заголовок : IsoMedia File Produced by Google, 5-11-2011
Дата кодирования : UTC 2013-01-28 10:52:46
Дата пометки : UTC 2013-01-28 10:52:46

Общее
Полное имя : E:Music Video (Vocal Trance)-4 (2008-2013)C-Systems - Heat (Abstract Vision & Elite Electronic Bootleg).mp4
Формат : MPEG-4
Профиль формата : Base Media / Version 2
Идентификатор кодека : mp42
Размер файла : 77,2 Мбайт
Продолжительность : 6 м. 46 с.
Режим общего битрейта : Переменный
Общий поток : 1594 Кбит/сек
Дата кодирования : UTC 2013-02-09 14:09:12
Дата пометки : UTC 2013-02-09 14:09:12
gsst : 0
gstd : 406673
gssd : BADC23AECHH1360585625160709
gshh : r12---sn-n8v7lnes.c.youtube.com

Видео
Идентификатор : 1
Формат : AVC
Формат/Информация : Advanced Video Codec
Профиль формата : High@L3.1
Параметр CABAC формата : Да
Параметр ReFrames формата : 1 кадр
Параметр GOP формата : M=1, N=60
Идентификатор кодека : avc1
Идентификатор кодека/Информация : Advanced Video Coding
Продолжительность : 6 м. 46 с.
Битрейт : 1399 Кбит/сек
Максимальный битрейт : 4738 Кбит/сек
Ширина : 1280 пикселей
Высота : 720 пикселей
Соотношение сторон : 16:9
Режим частоты кадров : Постоянный
Частота кадров : 29,970 кадров/сек
Цветовое пространство : YUV
Субдискретизация насыщенности : 4:2:0
Битовая глубина : 8 бит
Тип развёртки : Прогрессивная
Бит/(Пиксели*Кадры) : 0.051
Размер потока : 67,8 Мбайт (88%)
Дата пометки : UTC 2013-02-09 14:09:16

Аудио
Идентификатор : 2
Формат : AAC
Формат/Информация : Advanced Audio Codec
Профиль формата : LC
Идентификатор кодека : 40
Продолжительность : 6 м. 46 с.
Вид битрейта : Переменный
Битрейт : 192 Кбит/сек
Максимальный битрейт : 204 Кбит/сек
Каналы : 2 канала
Расположение каналов : Front: L R
Частота : 44,1 КГц
Метод сжатия : С потерями
Размер потока : 9,31 Мбайт (12%)
Заголовок : IsoMedia File Produced by Google, 5-11-2011
Дата кодирования : UTC 2013-02-09 14:09:15
Дата пометки : UTC 2013-02-09 14:09:16

Общее
Полное имя : E:Music Video (Vocal Trance)-4 (2008-2013)Denis Kenzo feat. Sveta B. - Lullaby Lonely (Cold Rush Bootleg).mp4
Формат : MPEG-4
Профиль формата : Base Media / Version 2
Идентификатор кодека : mp42
Размер файла : 87,2 Мбайт
Продолжительность : 7 м. 24 с.
Режим общего битрейта : Переменный
Общий поток : 1643 Кбит/сек
Дата кодирования : UTC 2013-01-13 15:29:10
Дата пометки : UTC 2013-01-13 15:29:10
gsst : 0
gstd : 444940
gssd : B57FB8485MH1360808997948621
gshh : r2---sn-5oqxgn-n8ve.c.youtube.com

Видео
Идентификатор : 1
Формат : AVC
Формат/Информация : Advanced Video Codec
Профиль формата : High@L3.1
Параметр CABAC формата : Да
Параметр ReFrames формата : 1 кадр
Параметр GOP формата : M=1, N=60
Идентификатор кодека : avc1
Идентификатор кодека/Информация : Advanced Video Coding
Продолжительность : 7 м. 24 с.
Битрейт : 1449 Кбит/сек
Максимальный битрейт : 4604 Кбит/сек
Ширина : 1280 пикселей
Высота : 720 пикселей
Соотношение сторон : 16:9
Режим частоты кадров : Постоянный
Частота кадров : 29,970 кадров/сек
Цветовое пространство : YUV
Субдискретизация насыщенности : 4:2:0
Битовая глубина : 8 бит
Тип развёртки : Прогрессивная
Бит/(Пиксели*Кадры) : 0.052
Размер потока : 76,8 Мбайт (88%)
Дата пометки : UTC 2013-01-13 15:29:10

Аудио
Идентификатор : 2
Формат : AAC
Формат/Информация : Advanced Audio Codec
Профиль формата : LC
Идентификатор кодека : 40
Продолжительность : 7 м. 24 с.
Вид битрейта : Переменный
Битрейт : 192 Кбит/сек
Максимальный битрейт : 201 Кбит/сек
Каналы : 2 канала
Расположение каналов : Front: L R
Частота : 44,1 КГц
Метод сжатия : С потерями
Размер потока : 10,2 Мбайт (12%)
Заголовок : IsoMedia File Produced by Google, 5-11-2011
Дата кодирования : UTC 2013-01-13 15:29:10
Дата пометки : UTC 2013-01-13 15:29:10

Общее
Полное имя : E:Music Video (Vocal Trance)-4 (2008-2013)Denis Kenzo feat. Sveta B. - Lullaby Lonely.mp4
Формат : MPEG-4
Профиль формата : Base Media / Version 2
Идентификатор кодека : mp42
Размер файла : 109 Мбайт
Продолжительность : 4 м. 17 с.
Режим общего битрейта : Переменный
Общий поток : 3543 Кбит/сек
Дата кодирования : UTC 2013-01-07 11:44:19
Дата пометки : UTC 2013-01-07 11:44:19
gsst : 0
gstd : 257671
gssd : B4A7DDAC2MH1360808825379431
gshh : r2---sn-4g57kuek.c.youtube.com

Видео
Идентификатор : 1
Формат : AVC
Формат/Информация : Advanced Video Codec
Профиль формата : High@L4.0
Параметр CABAC формата : Да
Параметр ReFrames формата : 1 кадр
Параметр GOP формата : M=1, N=50
Идентификатор кодека : avc1
Идентификатор кодека/Информация : Advanced Video Coding
Продолжительность : 4 м. 17 с.
Битрейт : 3349 Кбит/сек
Максимальный битрейт : 11,1 Мбит/сек
Ширина : 1920 пикселей
Высота : 1080 пикселей
Соотношение сторон : 16:9
Режим частоты кадров : Постоянный
Частота кадров : 25,000 кадров/сек
Цветовое пространство : YUV
Субдискретизация насыщенности : 4:2:0
Битовая глубина : 8 бит
Тип развёртки : Прогрессивная
Бит/(Пиксели*Кадры) : 0.065
Размер потока : 103 Мбайт (95%)
Дата пометки : UTC 2013-01-07 11:44:19

Аудио
Идентификатор : 2
Формат : AAC
Формат/Информация : Advanced Audio Codec
Профиль формата : LC
Идентификатор кодека : 40
Продолжительность : 4 м. 17 с.
Вид битрейта : Переменный
Битрейт : 192 Кбит/сек
Максимальный битрейт : 202 Кбит/сек
Каналы : 2 канала
Расположение каналов : Front: L R
Частота : 44,1 КГц
Метод сжатия : С потерями
Размер потока : 5,89 Мбайт (5%)
Заголовок : IsoMedia File Produced by Google, 5-11-2011
Дата кодирования : UTC 2013-01-07 11:44:19
Дата пометки : UTC 2013-01-07 11:44:19

Общее
Полное имя : E:Music Video (Vocal Trance)-4 (2008-2013)Dennis Sheperd - Edge of the World [Official Music Video] (+Lyrics).mp4
Формат : MPEG-4
Профиль формата : Base Media / Version 2
Идентификатор кодека : mp42
Размер файла : 89,6 Мбайт
Продолжительность : 4 м. 6 с.
Режим общего битрейта : Переменный
Общий поток : 3051 Кбит/сек
Дата кодирования : UTC 2013-01-01 16:22:20
Дата пометки : UTC 2013-01-01 16:22:20
gsst : 0
gstd : 246548
gssd : B4A7D6E04MH1360809567069881
gshh : r4---sn-n8v7lnez.c.youtube.com

Видео
Идентификатор : 1
Формат : AVC
Формат/Информация : Advanced Video Codec
Профиль формата : High@L3.1
Параметр CABAC формата : Да
Параметр ReFrames формата : 1 кадр
Идентификатор кодека : avc1
Идентификатор кодека/Информация : Advanced Video Coding
Продолжительность : 4 м. 6 с.
Битрейт : 2857 Кбит/сек
Максимальный битрейт : 6580 Кбит/сек
Ширина : 1280 пикселей
Высота : 720 пикселей
Соотношение сторон : 16:9
Режим частоты кадров : Постоянный
Частота кадров : 25,000 кадров/сек
Цветовое пространство : YUV
Субдискретизация насыщенности : 4:2:0
Битовая глубина : 8 бит
Тип развёртки : Прогрессивная
Бит/(Пиксели*Кадры) : 0.124
Размер потока : 83,9 Мбайт (94%)
Дата пометки : UTC 2013-01-01 16:22:20

Аудио
Идентификатор : 2
Формат : AAC
Формат/Информация : Advanced Audio Codec
Профиль формата : LC
Идентификатор кодека : 40
Продолжительность : 4 м. 6 с.
Вид битрейта : Переменный
Битрейт : 192 Кбит/сек
Максимальный битрейт : 201 Кбит/сек
Каналы : 2 канала
Расположение каналов : Front: L R
Частота : 44,1 КГц
Метод сжатия : С потерями
Размер потока : 5,64 Мбайт (6%)
Заголовок : IsoMedia File Produced by Google, 5-11-2011
Дата кодирования : UTC 2013-01-01 16:22:20
Дата пометки : UTC 2013-01-01 16:22:20

Общее
Полное имя : E:Music Video (Vocal Trance)-4 (2008-2013)Di Land - In The Club.mp4
Формат : MPEG-4
Профиль формата : Base Media / Version 2
Идентификатор кодека : mp42
Размер файла : 123 Мбайт
Продолжительность : 2 м. 59 с.
Режим общего битрейта : Переменный
Общий поток : 5756 Кбит/сек
Дата кодирования : UTC 2012-12-15 10:14:49
Дата пометки : UTC 2012-12-15 10:14:49
gsst : 0
gstd : 180023
gssd : B2EE8CF44HH1359792290931267
gshh : r1---sn-hxb54vo-304e.c.youtube.com

Видео
Идентификатор : 1
Формат : AVC
Формат/Информация : Advanced Video Codec
Профиль формата : High@L4.0
Параметр CABAC формата : Да
Параметр ReFrames формата : 1 кадр
Идентификатор кодека : avc1
Идентификатор кодека/Информация : Advanced Video Coding
Продолжительность : 2 м. 59 с.
Битрейт : 5562 Кбит/сек
Максимальный битрейт : 8291 Кбит/сек
Ширина : 1920 пикселей
Высота : 1080 пикселей
Соотношение сторон : 16:9
Режим частоты кадров : Постоянный
Частота кадров : 25,000 кадров/сек
Цветовое пространство : YUV
Субдискретизация насыщенности : 4:2:0
Битовая глубина : 8 бит
Тип развёртки : Прогрессивная
Бит/(Пиксели*Кадры) : 0.107
Размер потока : 119 Мбайт (97%)
Дата пометки : UTC 2012-12-15 10:14:49

Аудио
Идентификатор : 2
Формат : AAC
Формат/Информация : Advanced Audio Codec
Профиль формата : LC
Идентификатор кодека : 40
Продолжительность : 2 м. 59 с.
Вид битрейта : Переменный
Битрейт : 192 Кбит/сек
Максимальный битрейт : 205 Кбит/сек
Каналы : 2 канала
Расположение каналов : Front: L R
Частота : 44,1 КГц
Метод сжатия : С потерями
Размер потока : 4,12 Мбайт (3%)
Заголовок : IsoMedia File Produced by Google, 5-11-2011
Дата кодирования : UTC 2012-12-15 10:14:49
Дата пометки : UTC 2012-12-15 10:14:49

Общее
Полное имя : E:Music Video (Vocal Trance)-4 (2008-2013)Ela Rose & Dj Gino Manzotti - No U No Love (Official video clip).mp4
Формат : MPEG-4
Профиль формата : Base Media / Version 2
Идентификатор кодека : mp42
Размер файла : 111 Мбайт
Продолжительность : 3 м. 32 с.
Режим общего битрейта : Переменный
Общий поток : 4362 Кбит/сек
Дата кодирования : UTC 2010-12-23 22:54:10
Дата пометки : UTC 2010-12-23 22:54:10
gsst : 0
gstd : 212680
gssd : B4A7DD8A8MH1360423334553071
gshh : r8---sn-cg07lued.c.youtube.com

Видео
Идентификатор : 1
Формат : AVC
Формат/Информация : Advanced Video Codec
Профиль формата : High@L4.0
Параметр CABAC формата : Да
Параметр ReFrames формата : 1 кадр
Идентификатор кодека : avc1
Идентификатор кодека/Информация : Advanced Video Coding
Продолжительность : 3 м. 32 с.
Битрейт : 4229 Кбит/сек
Максимальный битрейт : 23,8 Мбит/сек
Ширина : 1920 пикселей
Высота : 1080 пикселей
Соотношение сторон : 16:9
Режим частоты кадров : Постоянный
Частота кадров : 25,000 кадров/сек
Цветовое пространство : YUV
Субдискретизация насыщенности : 4:2:0
Битовая глубина : 8 бит
Тип развёртки : Прогрессивная
Бит/(Пиксели*Кадры) : 0.082
Размер потока : 107 Мбайт (97%)
Дата пометки : UTC 2010-12-23 22:54:11

Аудио
Идентификатор : 2
Формат : AAC
Формат/Информация : Advanced Audio Codec
Профиль формата : LC
Идентификатор кодека : 40
Продолжительность : 3 м. 32 с.
Вид битрейта : Переменный
Битрейт : 128 Кбит/сек
Максимальный битрейт : 158 Кбит/сек
Каналы : 2 канала
Расположение каналов : Front: L R
Частота : 44,1 КГц
Метод сжатия : С потерями
Размер потока : 3,25 Мбайт (3%)
Заголовок : (C) 2007 Google Inc. v08.13.2007.
Дата кодирования : UTC 2010-12-23 22:54:11
Дата пометки : UTC 2010-12-23 22:54:11

Общее
Полное имя : E:Music Video (Vocal Trance)-4 (2008-2013)Ellie Lawson & Matt Bukovski - Breathe In Breathe Out (Uplifting Mix).mp4
Формат : MPEG-4
Профиль формата : Base Media / Version 2
Идентификатор кодека : mp42
Размер файла : 87,7 Мбайт
Продолжительность : 6 м. 47 с.
Режим общего битрейта : Переменный
Общий поток : 1803 Кбит/сек
Дата кодирования : UTC 2013-02-04 22:04:25
Дата пометки : UTC 2013-02-04 22:04:25
gsst : 0
gstd : 407973
gssd : BADC23A45MH1360160620088819
gshh : r5---sn-n8v7ln7r.c.youtube.com

Видео
Идентификатор : 1
Формат : AVC
Формат/Информация : Advanced Video Codec
Профиль формата : High@L3.1
Параметр CABAC формата : Да
Параметр ReFrames формата : 1 кадр
Идентификатор кодека : avc1
Идентификатор кодека/Информация : Advanced Video Coding
Продолжительность : 6 м. 47 с.
Битрейт : 1609 Кбит/сек
Максимальный битрейт : 9439 Кбит/сек
Ширина : 1280 пикселей
Высота : 720 пикселей
Соотношение сторон : 16:9
Режим частоты кадров : Постоянный
Частота кадров : 29,970 кадров/сек
Цветовое пространство : YUV
Субдискретизация насыщенности : 4:2:0
Битовая глубина : 8 бит
Тип развёртки : Прогрессивная
Бит/(Пиксели*Кадры) : 0.058
Размер потока : 78,2 Мбайт (89%)
Дата пометки : UTC 2013-02-04 22:04:25

Аудио
Идентификатор : 2
Формат : AAC
Формат/Информация : Advanced Audio Codec
Профиль формата : LC
Идентификатор кодека : 40
Продолжительность : 6 м. 47 с.
Вид битрейта : Переменный
Битрейт : 192 Кбит/сек
Максимальный битрейт : 202 Кбит/сек
Каналы : 2 канала
Расположение каналов : Front: L R
Частота : 44,1 КГц
Метод сжатия : С потерями
Размер потока : 9,33 Мбайт (11%)
Заголовок : IsoMedia File Produced by Google, 5-11-2011
Дата кодирования : UTC 2013-02-04 22:04:25
Дата пометки : UTC 2013-02-04 22:04:25

Общее
Полное имя : E:Music Video (Vocal Trance)-4 (2008-2013)Frozen Skies feat. Yana Vetrova - Coming Back (OFFICIAL VIDEO).mp4
Формат : MPEG-4
Профиль формата : Base Media / Version 2
Идентификатор кодека : mp42
Размер файла : 71,8 Мбайт
Продолжительность : 3 м. 48 с.
Режим общего битрейта : Переменный
Общий поток : 2638 Кбит/сек
Дата кодирования : UTC 2012-09-11 01:53:55
Дата пометки : UTC 2012-09-11 01:53:55
gsst : 0
gstd : 228506
gssd : B2EE8CF44MH1359775127718244
gshh : r1---sn-hxb54vo-304e.c.youtube.com

Видео
Идентификатор : 1
Формат : AVC
Формат/Информация : Advanced Video Codec
Профиль формата : High@L3.1
Параметр CABAC формата : Да
Параметр ReFrames формата : 1 кадр
Идентификатор кодека : avc1
Идентификатор кодека/Информация : Advanced Video Coding
Продолжительность : 3 м. 48 с.
Битрейт : 2443 Кбит/сек
Максимальный битрейт : 5922 Кбит/сек
Ширина : 1280 пикселей
Высота : 720 пикселей
Соотношение сторон : 16:9
Режим частоты кадров : Переменный
Частота кадров : 23,976 кадра/сек
Минимальная частота кадров : 23,529 кадра/сек
Максимальная частота кадров : 24,291 кадра/сек
Цветовое пространство : YUV
Субдискретизация насыщенности : 4:2:0
Битовая глубина : 8 бит
Тип развёртки : Прогрессивная
Бит/(Пиксели*Кадры) : 0.111
Размер потока : 66,5 Мбайт (93%)
Дата пометки : UTC 2012-09-11 01:53:55

Аудио
Идентификатор : 2
Формат : AAC
Формат/Информация : Advanced Audio Codec
Профиль формата : LC
Идентификатор кодека : 40
Продолжительность : 3 м. 48 с.
Вид битрейта : Переменный
Битрейт : 192 Кбит/сек
Максимальный битрейт : 201 Кбит/сек
Каналы : 2 канала
Расположение каналов : Front: L R
Частота : 44,1 КГц
Метод сжатия : С потерями
Размер потока : 5,23 Мбайт (7%)
Заголовок : IsoMedia File Produced by Google, 5-11-2011
Дата кодирования : UTC 2012-09-11 01:53:55
Дата пометки : UTC 2012-09-11 01:53:55

Общее
Полное имя : E:Music Video (Vocal Trance)-4 (2008-2013)Gabriel & Dresden feat. Betsie Larkin - Play It Back (Maor Levi Remix) (Official Music Video).mp4
Формат : MPEG-4
Профиль формата : Base Media / Version 2
Идентификатор кодека : mp42
Размер файла : 106 Мбайт
Продолжительность : 3 м. 59 с.
Режим общего битрейта : Переменный
Общий поток : 3704 Кбит/сек
Дата кодирования : UTC 2013-02-03 08:14:28
Дата пометки : UTC 2013-02-03 08:14:28
gsst : 0
gstd : 239373
gssd : B57FB8489MH1359989702677749
gshh : r6---sn-5oqxgn-n8ve.c.youtube.com

Видео
Идентификатор : 1
Формат : AVC
Формат/Информация : Advanced Video Codec
Профиль формата : High@L4.0
Параметр CABAC формата : Да
Параметр ReFrames формата : 1 кадр
Идентификатор кодека : avc1
Идентификатор кодека/Информация : Advanced Video Coding
Продолжительность : 3 м. 59 с.
Битрейт : 3510 Кбит/сек
Максимальный битрейт : 7653 Кбит/сек
Ширина : 1920 пикселей
Высота : 1080 пикселей
Соотношение сторон : 16:9
Режим частоты кадров : Постоянный
Частота кадров : 23,976 кадра/сек
Цветовое пространство : YUV
Субдискретизация насыщенности : 4:2:0
Битовая глубина : 8 бит
Тип развёртки : Прогрессивная
Бит/(Пиксели*Кадры) : 0.071
Размер потока : 100 Мбайт (95%)
Дата пометки : UTC 2013-02-03 08:14:29

Аудио
Идентификатор : 2
Формат : AAC
Формат/Информация : Advanced Audio Codec
Профиль формата : LC
Идентификатор кодека : 40
Продолжительность : 3 м. 59 с.
Вид битрейта : Переменный
Битрейт : 192 Кбит/сек
Максимальный битрейт : 202 Кбит/сек
Каналы : 2 канала
Расположение каналов : Front: L R
Частота : 44,1 КГц
Метод сжатия : С потерями
Размер потока : 5,48 Мбайт (5%)
Заголовок : IsoMedia File Produced by Google, 5-11-2011
Дата кодирования : UTC 2013-02-03 08:14:29
Дата пометки : UTC 2013-02-03 08:14:29

Общее
Полное имя : E:Music Video (Vocal Trance)-4 (2008-2013)Jasmine June - Calling (Official Video).mp4
Формат : MPEG-4
Профиль формата : Base Media / Version 2
Идентификатор кодека : mp42
Размер файла : 85,8 Мбайт
Продолжительность : 2 м. 46 с.
Режим общего битрейта : Переменный
Общий поток : 4316 Кбит/сек
Дата кодирования : UTC 2011-08-28 16:57:01
Дата пометки : UTC 2011-08-28 16:57:01
gsst : 0
gstd : 166840
gssd : B4A7DD861MH1359741150845170
gshh : r1---sn-cg07luez.c.youtube.com

Видео
Идентификатор : 1
Формат : AVC
Формат/Информация : Advanced Video Codec
Профиль формата : High@L4.0
Параметр CABAC формата : Да
Параметр ReFrames формата : 1 кадр
Идентификатор кодека : avc1
Идентификатор кодека/Информация : Advanced Video Coding
Продолжительность : 2 м. 46 с.
Битрейт : 4159 Кбит/сек
Максимальный битрейт : 14,1 Мбит/сек
Ширина : 1920 пикселей
Высота : 1080 пикселей
Соотношение сторон : 16:9
Режим частоты кадров : Постоянный
Частота кадров : 25,000 кадров/сек
Цветовое пространство : YUV
Субдискретизация насыщенности : 4:2:0
Битовая глубина : 8 бит
Тип развёртки : Прогрессивная
Бит/(Пиксели*Кадры) : 0.080
Размер потока : 82,7 Мбайт (96%)
Дата пометки : UTC 2011-08-28 16:57:01

Аудио
Идентификатор : 2
Формат : AAC
Формат/Информация : Advanced Audio Codec
Профиль формата : LC
Идентификатор кодека : 40
Продолжительность : 2 м. 46 с.
Вид битрейта : Переменный
Битрейт : 152 Кбит/сек
Максимальный битрейт : 188 Кбит/сек
Каналы : 2 канала
Расположение каналов : Front: L R
Частота : 44,1 КГц
Метод сжатия : С потерями
Размер потока : 3,02 Мбайт (4%)
Заголовок : IsoMedia File Produced by Google, 5-11-2011
Дата кодирования : UTC 2011-08-28 16:57:01
Дата пометки : UTC 2011-08-28 16:57:01

Общее
Полное имя : E:Music Video (Vocal Trance)-4 (2008-2013)Jaytech feat. Steve Smith - Stranger (OFFICIAL MUSIC VIDEO).mp4
Формат : MPEG-4
Профиль формата : Base Media / Version 2
Идентификатор кодека : mp42
Размер файла : 67,6 Мбайт
Продолжительность : 4 м. 10 с.
Режим общего битрейта : Переменный
Общий поток : 2266 Кбит/сек
Дата кодирования : UTC 2012-08-28 12:18:54
Дата пометки : UTC 2012-08-28 12:18:54
gsst : 0
gstd : 250310
gssd : BADC23AEAMH1359794594889947
gshh : r10---sn-n8v7lnes.c.youtube.com

Видео
Идентификатор : 1
Формат : AVC
Формат/Информация : Advanced Video Codec
Профиль формата : High@L4.0
Параметр CABAC формата : Да
Параметр ReFrames формата : 1 кадр
Параметр GOP формата : M=1, N=50
Идентификатор кодека : avc1
Идентификатор кодека/Информация : Advanced Video Coding
Продолжительность : 4 м. 10 с.
Битрейт : 2072 Кбит/сек
Максимальный битрейт : 5233 Кбит/сек
Ширина : 1920 пикселей
Высота : 1080 пикселей
Соотношение сторон : 16:9
Режим частоты кадров : Постоянный
Частота кадров : 25,000 кадров/сек
Цветовое пространство : YUV
Субдискретизация насыщенности : 4:2:0
Битовая глубина : 8 бит
Тип развёртки : Прогрессивная
Бит/(Пиксели*Кадры) : 0.040
Размер потока : 61,8 Мбайт (91%)
Дата пометки : UTC 2012-08-28 12:18:54

Аудио
Идентификатор : 2
Формат : AAC
Формат/Информация : Advanced Audio Codec
Профиль формата : LC
Идентификатор кодека : 40
Продолжительность : 4 м. 10 с.
Вид битрейта : Переменный
Битрейт : 192 Кбит/сек
Максимальный битрейт : 204 Кбит/сек
Каналы : 2 канала
Расположение каналов : Front: L R
Частота : 44,1 КГц
Метод сжатия : С потерями
Размер потока : 5,73 Мбайт (8%)
Заголовок : IsoMedia File Produced by Google, 5-11-2011
Дата кодирования : UTC 2012-08-28 12:18:54
Дата пометки : UTC 2012-08-28 12:18:54

Общее
Полное имя : E:Music Video (Vocal Trance)-4 (2008-2013)Jes - Lovesong (official video).mp4
Формат : MPEG-4
Профиль формата : Base Media / Version 2
Идентификатор кодека : mp42
Размер файла : 71,4 Мбайт
Продолжительность : 3 м. 40 с.
Режим общего битрейта : Переменный
Общий поток : 2716 Кбит/сек
Дата кодирования : UTC 2011-07-06 20:01:44
Дата пометки : UTC 2011-07-06 20:01:44
gsst : 0
gstd : 220480
gssd : BD075E04BMH1359211240013683
gshh : r8---sn-2apm-f5fz.c.youtube.com

Видео
Идентификатор : 1
Формат : AVC
Формат/Информация : Advanced Video Codec
Профиль формата : High@L3.1
Параметр CABAC формата : Да
Параметр ReFrames формата : 1 кадр
Идентификатор кодека : avc1
Идентификатор кодека/Информация : Advanced Video Coding
Продолжительность : 3 м. 40 с.
Битрейт : 2559 Кбит/сек
Максимальный битрейт : 6881 Кбит/сек
Ширина : 1280 пикселей
Высота : 720 пикселей
Соотношение сторон : 16:9
Режим частоты кадров : Постоянный
Частота кадров : 25,000 кадров/сек
Цветовое пространство : YUV
Субдискретизация насыщенности : 4:2:0
Битовая глубина : 8 бит
Тип развёртки : Прогрессивная
Бит/(Пиксели*Кадры) : 0.111
Размер потока : 67,3 Мбайт (94%)
Дата пометки : UTC 2011-07-06 20:01:45

Аудио
Идентификатор : 2
Формат : AAC
Формат/Информация : Advanced Audio Codec
Профиль формата : LC
Идентификатор кодека : 40
Продолжительность : 3 м. 40 с.
Вид битрейта : Переменный
Битрейт : 152 Кбит/сек
Максимальный битрейт : 178 Кбит/сек
Каналы : 2 канала
Расположение каналов : Front: L R
Частота : 44,1 КГц
Метод сжатия : С потерями
Размер потока : 3,99 Мбайт (6%)
Заголовок : IsoMedia File Produced by Google, 5-11-2011
Дата кодирования : UTC 2011-07-06 20:01:44
Дата пометки : UTC 2011-07-06 20:01:45

Общее
Полное имя : E:Music Video (Vocal Trance)-4 (2008-2013)Kimerik Blaze - Memories (Official Music Video).mp4
Формат : MPEG-4
Профиль формата : Base Media / Version 2
Идентификатор кодека : mp42
Размер файла : 166 Мбайт
Продолжительность : 3 м. 48 с.
Режим общего битрейта : Переменный
Общий поток : 6091 Кбит/сек
Дата кодирования : UTC 2012-06-05 06:36:23
Дата пометки : UTC 2012-06-05 06:36:23
gsst : 0
gstd : 228436
gssd : B4A7DDA05MH1360848950555228
gshh : r5---sn-4g57kuee.c.youtube.com

Видео
Идентификатор : 1
Формат : AVC
Формат/Информация : Advanced Video Codec
Профиль формата : High@L4.0
Параметр CABAC формата : Да
Параметр ReFrames формата : 1 кадр
Идентификатор кодека : avc1
Идентификатор кодека/Информация : Advanced Video Coding
Продолжительность : 3 м. 48 с.
Битрейт : 5937 Кбит/сек
Максимальный битрейт : 13,4 Мбит/сек
Ширина : 1920 пикселей
Высота : 1080 пикселей
Соотношение сторон : 16:9
Режим частоты кадров : Постоянный
Частота кадров : 29,970 кадров/сек
Цветовое пространство : YUV
Субдискретизация насыщенности : 4:2:0
Битовая глубина : 8 бит
Тип развёртки : Прогрессивная
Бит/(Пиксели*Кадры) : 0.096
Размер потока : 162 Мбайт (97%)
Дата пометки : UTC 2012-06-05 06:36:24

Аудио
Идентификатор : 2
Формат : AAC
Формат/Информация : Advanced Audio Codec
Профиль формата : LC
Идентификатор кодека : 40
Продолжительность : 3 м. 48 с.
Вид битрейта : Переменный
Битрейт : 152 Кбит/сек
Максимальный битрейт : 178 Кбит/сек
Каналы : 2 канала
Расположение каналов : Front: L R
Частота : 44,1 КГц
Метод сжатия : С потерями
Размер потока : 4,13 Мбайт (2%)
Заголовок : IsoMedia File Produced by Google, 5-11-2011
Дата кодирования : UTC 2012-06-05 06:36:24
Дата пометки : UTC 2012-06-05 06:36:24

Общее
Полное имя : E:Music Video (Vocal Trance)-4 (2008-2013)Kirsty - Free Of War (Original Radio Edit) Official Video.mp4
Формат : MPEG-4
Профиль формата : Base Media / Version 2
Идентификатор кодека : mp42
Размер файла : 73,6 Мбайт
Продолжительность : 3 м. 39 с.
Режим общего битрейта : Переменный
Общий поток : 2814 Кбит/сек
Дата кодирования : UTC 2012-07-03 17:37:08
Дата пометки : UTC 2012-07-03 17:37:08
gsst : 0
gstd : 219566
gssd : BADC23A84MM1360848312007421
gshh : r4---sn-n8v7lne7.c.youtube.com

Видео
Идентификатор : 1
Формат : AVC
Формат/Информация : Advanced Video Codec
Профиль формата : High@L4.0
Параметр CABAC формата : Да
Параметр ReFrames формата : 1 кадр
Идентификатор кодека : avc1
Идентификатор кодека/Информация : Advanced Video Coding
Продолжительность : 3 м. 39 с.
Битрейт : 2660 Кбит/сек
Максимальный битрейт : 10,2 Мбит/сек
Ширина : 1920 пикселей
Высота : 1080 пикселей
Соотношение сторон : 16:9
Режим частоты кадров : Постоянный
Частота кадров : 25,000 кадров/сек
Цветовое пространство : YUV
Субдискретизация насыщенности : 4:2:0
Битовая глубина : 8 бит
Тип развёртки : Прогрессивная
Бит/(Пиксели*Кадры) : 0.051
Размер потока : 69,6 Мбайт (95%)
Дата пометки : UTC 2012-07-03 17:37:08

Аудио
Идентификатор : 2
Формат : AAC
Формат/Информация : Advanced Audio Codec
Профиль формата : LC
Идентификатор кодека : 40
Продолжительность : 3 м. 39 с.
Вид битрейта : Переменный
Битрейт : 152 Кбит/сек
Максимальный битрейт : 175 Кбит/сек
Каналы : 2 канала
Расположение каналов : Front: L R
Частота : 44,1 КГц
Метод сжатия : С потерями
Размер потока : 3,97 Мбайт (5%)
Заголовок : IsoMedia File Produced by Google, 5-11-2011
Дата кодирования : UTC 2012-07-03 17:37:08
Дата пометки : UTC 2012-07-03 17:37:08

Общее
Полное имя : E:Music Video (Vocal Trance)-4 (2008-2013)Lence & Pluton - Forget It (Gradian Remix).mp4
Формат : MPEG-4
Профиль формата : Base Media / Version 2
Идентификатор кодека : mp42
Размер файла : 111 Мбайт
Продолжительность : 7 м. 56 с.
Режим общего битрейта : Переменный
Общий поток : 1953 Кбит/сек
Дата кодирования : UTC 2013-01-18 13:58:59
Дата пометки : UTC 2013-01-18 13:58:59
gsst : 0
gstd : 476216
gssd : B57FB8486MH1360424249802359
gshh : r3---sn-5oqxgn-n8ve.c.youtube.com

Видео
Идентификатор : 1
Формат : AVC
Формат/Информация : Advanced Video Codec
Профиль формата : High@L3.1
Параметр CABAC формата : Да
Параметр ReFrames формата : 1 кадр
Идентификатор кодека : avc1
Идентификатор кодека/Информация : Advanced Video Coding
Продолжительность : 7 м. 56 с.
Битрейт : 1759 Кбит/сек
Максимальный битрейт : 5214 Кбит/сек
Ширина : 1280 пикселей
Высота : 720 пикселей
Соотношение сторон : 16:9
Режим частоты кадров : Постоянный
Частота кадров : 29,970 кадров/сек
Цветовое пространство : YUV
Субдискретизация насыщенности : 4:2:0
Битовая глубина : 8 бит
Тип развёртки : Прогрессивная
Бит/(Пиксели*Кадры) : 0.064
Размер потока : 99,8 Мбайт (90%)
Дата пометки : UTC 2013-01-18 13:58:59

Аудио
Идентификатор : 2
Формат : AAC
Формат/Информация : Advanced Audio Codec
Профиль формата : LC
Идентификатор кодека : 40
Продолжительность : 7 м. 56 с.
Вид битрейта : Переменный
Битрейт : 192 Кбит/сек
Максимальный битрейт : 203 Кбит/сек
Каналы : 2 канала
Расположение каналов : Front: L R
Частота : 44,1 КГц
Метод сжатия : С потерями
Размер потока : 10,9 Мбайт (10%)
Заголовок : IsoMedia File Produced by Google, 5-11-2011
Дата кодирования : UTC 2013-01-18 13:58:59
Дата пометки : UTC 2013-01-18 13:58:59

Общее
Полное имя : E:Music Video (Vocal Trance)-4 (2008-2013)Linnea Schossow - Someone Like You (Original Mix).mp4
Формат : MPEG-4
Профиль формата : Base Media / Version 2
Идентификатор кодека : mp42
Размер файла : 37,2 Мбайт
Продолжительность : 3 м. 7 с.
Режим общего битрейта : Переменный
Общий поток : 1666 Кбит/сек
Дата кодирования : UTC 2011-07-17 17:29:36
Дата пометки : UTC 2011-07-17 17:29:36
gsst : 0
gstd : 187041
gssd : BADC23A44HH1359792546355073
gshh : r4---sn-n8v7ln7r.c.youtube.com

Видео
Идентификатор : 1
Формат : AVC
Формат/Информация : Advanced Video Codec
Профиль формата : High@L3.1
Параметр CABAC формата : Да
Параметр ReFrames формата : 1 кадр
Параметр GOP формата : M=1, N=30
Идентификатор кодека : avc1
Идентификатор кодека/Информация : Advanced Video Coding
Продолжительность : 3 м. 7 с.
Битрейт : 1509 Кбит/сек
Максимальный битрейт : 3345 Кбит/сек
Ширина : 1280 пикселей
Высота : 720 пикселей
Соотношение сторон : 16:9
Режим частоты кадров : Переменный
Частота кадров : 24,000 кадра/сек
Минимальная частота кадров : 23,810 кадра/сек
Максимальная частота кадров : 24,390 кадра/сек
Цветовое пространство : YUV
Субдискретизация насыщенности : 4:2:0
Битовая глубина : 8 бит
Тип развёртки : Прогрессивная
Бит/(Пиксели*Кадры) : 0.068
Размер потока : 33,7 Мбайт (91%)
Дата пометки : UTC 2011-07-17 17:29:38

Аудио
Идентификатор : 2
Формат : AAC
Формат/Информация : Advanced Audio Codec
Профиль формата : LC
Идентификатор кодека : 40
Продолжительность : 3 м. 7 с.
Вид битрейта : Переменный
Битрейт : 152 Кбит/сек
Максимальный битрейт : 176 Кбит/сек
Каналы : 2 канала
Расположение каналов : Front: L R
Частота : 44,1 КГц
Метод сжатия : С потерями
Размер потока : 3,38 Мбайт (9%)
Заголовок : IsoMedia File Produced by Google, 5-11-2011
Дата кодирования : UTC 2011-07-17 17:29:37
Дата пометки : UTC 2011-07-17 17:29:38

Общее
Полное имя : E:Music Video (Vocal Trance)-4 (2008-2013)Milk Inc - Blackout (Official Videoclip).mp4
Формат : MPEG-4
Профиль формата : Base Media / Version 2
Идентификатор кодека : mp42
Размер файла : 55,5 Мбайт
Продолжительность : 3 м. 39 с.
Режим общего битрейта : Переменный
Общий поток : 2126 Кбит/сек
Дата кодирования : UTC 2009-07-09 15:53:31
Дата пометки : UTC 2009-07-09 15:53:31
gsst : 0
gstd : 219520
gssd : B4A7D6E25MM1360815638195826
gshh : r5---sn-n8v7lne6.c.youtube.com

Видео
Идентификатор : 2
Формат : AVC
Формат/Информация : Advanced Video Codec
Профиль формата : High@L3.1
Параметр CABAC формата : Да
Параметр ReFrames формата : 3 кадра
Идентификатор кодека : avc1
Идентификатор кодека/Информация : Advanced Video Coding
Продолжительность : 3 м. 39 с.
Битрейт : 1998 Кбит/сек
Максимальный битрейт : 3440 Кбит/сек
Ширина : 1280 пикселей
Высота : 720 пикселей
Соотношение сторон : 16:9
Режим частоты кадров : Постоянный
Частота кадров : 25,000 кадров/сек
Цветовое пространство : YUV
Субдискретизация насыщенности : 4:2:0
Битовая глубина : 8 бит
Тип развёртки : Прогрессивная
Бит/(Пиксели*Кадры) : 0.087
Размер потока : 52,2 Мбайт (94%)
Заголовок : (C) 2007 Google Inc. v08.13.2007.
Дата кодирования : UTC 2009-07-09 15:53:31
Дата пометки : UTC 2009-07-09 15:53:33

Аудио
Идентификатор : 1
Формат : AAC
Формат/Информация : Advanced Audio Codec
Профиль формата : LC
Идентификатор кодека : 40
Продолжительность : 3 м. 39 с.
Вид битрейта : Переменный
Битрейт : 126 Кбит/сек
Максимальный битрейт : 151 Кбит/сек
Каналы : 2 канала
Расположение каналов : Front: L R
Частота : 44,1 КГц
Метод сжатия : С потерями
Размер потока : 3,29 Мбайт (6%)
Заголовок : (C) 2007 Google Inc. v08.13.2007.
Дата кодирования : UTC 2009-07-09 15:53:31
Дата пометки : UTC 2009-07-09 15:53:33

Общее
Полное имя : E:Music Video (Vocal Trance)-4 (2008-2013)Milk Inc. - Storm (Official Video).mp4
Формат : MPEG-4
Профиль формата : Base Media / Version 2
Идентификатор кодека : mp42
Размер файла : 50,9 Мбайт
Продолжительность : 3 м. 17 с.
Режим общего битрейта : Переменный
Общий поток : 2157 Кбит/сек
Дата кодирования : UTC 2010-03-29 15:52:24
Дата пометки : UTC 2010-03-29 15:52:24
gsst : 0
gstd : 198390
gssd : B4A7DDAE4MH1360815891769226
gshh : r4---sn-4g57kuer.c.youtube.com

Видео
Идентификатор : 2
Формат : AVC
Формат/Информация : Advanced Video Codec
Профиль формата : High@L3.1
Параметр CABAC формата : Да
Параметр ReFrames формата : 3 кадра
Идентификатор кодека : avc1
Идентификатор кодека/Информация : Advanced Video Coding
Продолжительность : 3 м. 17 с.
Битрейт : 2029 Кбит/сек
Максимальный битрейт : 3314 Кбит/сек
Ширина : 1280 пикселей
Высота : 720 пикселей
Соотношение сторон : 16:9
Режим частоты кадров : Постоянный
Частота кадров : 25,000 кадров/сек
Цветовое пространство : YUV
Субдискретизация насыщенности : 4:2:0
Битовая глубина : 8 бит
Тип развёртки : Прогрессивная
Бит/(Пиксели*Кадры) : 0.088
Размер потока : 47,9 Мбайт (94%)
Заголовок : (C) 2007 Google Inc. v08.13.2007.
Дата кодирования : UTC 2010-03-29 15:52:24
Дата пометки : UTC 2010-03-29 15:52:26

Аудио
Идентификатор : 1
Формат : AAC
Формат/Информация : Advanced Audio Codec
Профиль формата : LC
Идентификатор кодека : 40
Продолжительность : 3 м. 17 с.
Вид битрейта : Переменный
Битрейт : 125 Кбит/сек
Максимальный битрейт : 164 Кбит/сек
Каналы : 2 канала
Расположение каналов : Front: L R
Частота : 44,1 КГц
Метод сжатия : С потерями
Размер потока : 2,97 Мбайт (6%)
Заголовок : (C) 2007 Google Inc. v08.13.2007.
Дата кодирования : UTC 2010-03-29 15:52:24
Дата пометки : UTC 2010-03-29 15:52:26

Общее
Полное имя : E:Music Video (Vocal Trance)-4 (2008-2013)Natalie Exland - In other world.mp4
Формат : MPEG-4
Профиль формата : Base Media / Version 2
Идентификатор кодека : mp42
Размер файла : 132 Мбайт
Продолжительность : 4 м. 4 с.
Режим общего битрейта : Переменный
Общий поток : 4524 Кбит/сек
Дата кодирования : UTC 2013-02-04 19:25:54
Дата пометки : UTC 2013-02-04 19:25:54
gsst : 0
gstd : 244411
gssd : B57FB8484MM1360815302546724
gshh : r1---sn-5oqxgn-n8ve.c.youtube.com

Видео
Идентификатор : 1
Формат : AVC
Формат/Информация : Advanced Video Codec
Профиль формата : High@L4.0
Параметр CABAC формата : Да
Параметр ReFrames формата : 1 кадр
Идентификатор кодека : avc1
Идентификатор кодека/Информация : Advanced Video Coding
Продолжительность : 4 м. 4 с.
Битрейт : 4329 Кбит/сек
Максимальный битрейт : 9606 Кбит/сек
Ширина : 1920 пикселей
Высота : 1080 пикселей
Соотношение сторон : 16:9
Режим частоты кадров : Постоянный
Частота кадров : 24,000 кадра/сек
Цветовое пространство : YUV
Субдискретизация насыщенности : 4:2:0
Битовая глубина : 8 бит
Тип развёртки : Прогрессивная
Бит/(Пиксели*Кадры) : 0.087
Размер потока : 126 Мбайт (96%)
Дата пометки : UTC 2013-02-04 19:25:55

Аудио
Идентификатор : 2
Формат : AAC
Формат/Информация : Advanced Audio Codec
Профиль формата : LC
Идентификатор кодека : 40
Продолжительность : 4 м. 4 с.
Вид битрейта : Переменный
Битрейт : 192 Кбит/сек
Максимальный битрейт : 203 Кбит/сек
Каналы : 2 канала
Расположение каналов : Front: L R
Частота : 44,1 КГц
Метод сжатия : С потерями
Размер потока : 5,59 Мбайт (4%)
Заголовок : IsoMedia File Produced by Google, 5-11-2011
Дата кодирования : UTC 2013-02-04 19:25:55
Дата пометки : UTC 2013-02-04 19:25:55

Общее
Полное имя : E:Music Video (Vocal Trance)-4 (2008-2013)Nitrous Oxide feat. Aneym - Follow You (Official Music Video).mp4
Формат : MPEG-4
Профиль формата : Base Media / Version 2
Идентификатор кодека : mp42
Размер файла : 72,5 Мбайт
Продолжительность : 3 м. 14 с.
Режим общего битрейта : Переменный
Общий поток : 3123 Кбит/сек
Дата кодирования : UTC 2011-03-16 19:28:47
Дата пометки : UTC 2011-03-16 19:28:47
gsst : 0
gstd : 194840
gssd : B2EE8CF4AMH1359794513000410
gshh : r7---sn-hxb54vo-304e.c.youtube.com

Видео
Идентификатор : 1
Формат : AVC
Формат/Информация : Advanced Video Codec
Профиль формата : High@L4.0
Параметр CABAC формата : Да
Параметр ReFrames формата : 1 кадр
Идентификатор кодека : avc1
Идентификатор кодека/Информация : Advanced Video Coding
Продолжительность : 3 м. 14 с.
Битрейт : 2993 Кбит/сек
Максимальный битрейт : 23,6 Мбит/сек
Ширина : 1920 пикселей
Высота : 1080 пикселей
Соотношение сторон : 16:9
Режим частоты кадров : Постоянный
Частота кадров : 25,000 кадров/сек
Цветовое пространство : YUV
Субдискретизация насыщенности : 4:2:0
Битовая глубина : 8 бит
Тип развёртки : Прогрессивная
Бит/(Пиксели*Кадры) : 0.058
Размер потока : 69,5 Мбайт (96%)
Дата пометки : UTC 2011-03-16 19:28:51

Аудио
Идентификатор : 2
Формат : AAC
Формат/Информация : Advanced Audio Codec
Профиль формата : LC
Идентификатор кодека : 40
Продолжительность : 3 м. 14 с.
Вид битрейта : Переменный
Битрейт : 125 Кбит/сек
Максимальный битрейт : 142 Кбит/сек
Каналы : 2 канала
Расположение каналов : Front: L R
Частота : 44,1 КГц
Метод сжатия : С потерями
Размер потока : 2,91 Мбайт (4%)
Заголовок : (C) 2007 Google Inc. v08.13.2007.
Дата кодирования : UTC 2011-03-16 19:28:49
Дата пометки : UTC 2011-03-16 19:28:51

Общее
Полное имя : E:Music Video (Vocal Trance)-4 (2008-2013)Ruta feat.Three Faces - City Of Love(Original Mix).mp4
Формат : MPEG-4
Профиль формата : Base Media / Version 2
Идентификатор кодека : mp42
Размер файла : 132 Мбайт
Продолжительность : 7 м. 51 с.
Режим общего битрейта : Переменный
Общий поток : 2357 Кбит/сек
Дата кодирования : UTC 2013-01-03 14:32:53
Дата пометки : UTC 2013-01-03 14:32:53
gsst : 0
gstd : 471318
gssd : B4A7D6E24HH1360424317003615
gshh : r4---sn-n8v7lne6.c.youtube.com

Видео
Идентификатор : 1
Формат : AVC
Формат/Информация : Advanced Video Codec
Профиль формата : High@L3.1
Параметр CABAC формата : Да
Параметр ReFrames формата : 1 кадр
Идентификатор кодека : avc1
Идентификатор кодека/Информация : Advanced Video Coding
Продолжительность : 7 м. 51 с.
Битрейт : 2162 Кбит/сек
Максимальный битрейт : 6815 Кбит/сек
Ширина : 1280 пикселей
Высота : 720 пикселей
Соотношение сторон : 16:9
Режим частоты кадров : Постоянный
Частота кадров : 29,970 кадров/сек
Цветовое пространство : YUV
Субдискретизация насыщенности : 4:2:0
Битовая глубина : 8 бит
Тип развёртки : Прогрессивная
Бит/(Пиксели*Кадры) : 0.078
Размер потока : 121 Мбайт (92%)
Дата пометки : UTC 2013-01-03 14:32:54

Аудио
Идентификатор : 2
Формат : AAC
Формат/Информация : Advanced Audio Codec
Профиль формата : LC
Идентификатор кодека : 40
Продолжительность : 7 м. 51 с.
Вид битрейта : Переменный
Битрейт : 192 Кбит/сек
Максимальный битрейт : 203 Кбит/сек
Каналы : 2 канала
Расположение каналов : Front: L R
Частота : 44,1 КГц
Метод сжатия : С потерями
Размер потока : 10,8 Мбайт (8%)
Заголовок : IsoMedia File Produced by Google, 5-11-2011
Дата кодирования : UTC 2013-01-03 14:32:54
Дата пометки : UTC 2013-01-03 14:32:54

Общее
Полное имя : E:Music Video (Vocal Trance)-4 (2008-2013)Sean Bay & Tiff Lacey - Moon In The Dark (Official Music Video).mp4
Формат : MPEG-4
Профиль формата : Base Media / Version 2
Идентификатор кодека : mp42
Размер файла : 77,6 Мбайт
Продолжительность : 4 м. 46 с.
Режим общего битрейта : Переменный
Общий поток : 2271 Кбит/сек
Дата кодирования : UTC 2012-05-13 13:20:43
Дата пометки : UTC 2012-05-13 13:20:43
gsst : 0
gstd : 286905
gssd : B4A7D6E24HH1360586402787136
gshh : r4---sn-n8v7lne6.c.youtube.com

Видео
Идентификатор : 1
Формат : AVC
Формат/Информация : Advanced Video Codec
Профиль формата : High@L3.1
Параметр CABAC формата : Да
Параметр ReFrames формата : 1 кадр
Параметр GOP формата : M=1, N=30
Идентификатор кодека : avc1
Идентификатор кодека/Информация : Advanced Video Coding
Продолжительность : 4 м. 46 с.
Битрейт : 2119 Кбит/сек
Максимальный битрейт : 5435 Кбит/сек
Ширина : 1280 пикселей
Высота : 720 пикселей
Соотношение сторон : 16:9
Режим частоты кадров : Постоянный
Частота кадров : 25,000 кадров/сек
Цветовое пространство : YUV
Субдискретизация насыщенности : 4:2:0
Битовая глубина : 8 бит
Тип развёртки : Прогрессивная
Бит/(Пиксели*Кадры) : 0.092
Размер потока : 72,4 Мбайт (93%)
Дата пометки : UTC 2012-05-13 13:20:43

Аудио
Идентификатор : 2
Формат : AAC
Формат/Информация : Advanced Audio Codec
Профиль формата : LC
Идентификатор кодека : 40
Продолжительность : 4 м. 46 с.
Вид битрейта : Переменный
Битрейт : 150 Кбит/сек
Максимальный битрейт : 194 Кбит/сек
Каналы : 2 канала
Расположение каналов : Front: L R
Частота : 44,1 КГц
Метод сжатия : С потерями
Размер потока : 5,12 Мбайт (7%)
Заголовок : IsoMedia File Produced by Google, 5-11-2011
Дата кодирования : UTC 2012-05-13 13:20:43
Дата пометки : UTC 2012-05-13 13:20:43

Общее
Полное имя : E:Music Video (Vocal Trance)-4 (2008-2013)Sean Bay feat. Antonia Lucas - Leave This World Behind.mp4
Формат : MPEG-4
Профиль формата : Base Media / Version 2
Идентификатор кодека : mp42
Размер файла : 152 Мбайт
Продолжительность : 4 м. 38 с.
Режим общего битрейта : Переменный
Общий поток : 4558 Кбит/сек
Дата кодирования : UTC 2011-06-05 23:39:54
Дата пометки : UTC 2011-06-05 23:39:54
gsst : 0
gstd : 278931
gssd : B4A7DDAC3MH1360586578179412
gshh : r3---sn-4g57kuek.c.youtube.com

Видео
Идентификатор : 1
Формат : AVC
Формат/Информация : Advanced Video Codec
Профиль формата : High@L4.0
Параметр CABAC формата : Да
Параметр ReFrames формата : 1 кадр
Идентификатор кодека : avc1
Идентификатор кодека/Информация : Advanced Video Coding
Продолжительность : 4 м. 38 с.
Битрейт : 4401 Кбит/сек
Максимальный битрейт : 9215 Кбит/сек
Ширина : 1920 пикселей
Высота : 1080 пикселей
Соотношение сторон : 16:9
Режим частоты кадров : Переменный
Частота кадров : 23,976 кадра/сек
Минимальная частота кадров : 17,241 кадров/сек
Максимальная частота кадров : 24,390 кадра/сек
Цветовое пространство : YUV
Субдискретизация насыщенности : 4:2:0
Битовая глубина : 8 бит
Тип развёртки : Прогрессивная
Бит/(Пиксели*Кадры) : 0.089
Размер потока : 146 Мбайт (97%)
Дата пометки : UTC 2011-06-05 23:40:02

Аудио
Идентификатор : 2
Формат : AAC
Формат/Информация : Advanced Audio Codec
Профиль формата : LC
Идентификатор кодека : 40
Продолжительность : 4 м. 38 с.
Вид битрейта : Переменный
Битрейт : 151 Кбит/сек
Максимальный битрейт : 222 Кбит/сек
Каналы : 2 канала
Расположение каналов : Front: L R
Частота : 44,1 КГц
Метод сжатия : С потерями
Размер потока : 5,02 Мбайт (3%)
Заголовок : IsoMedia File Produced by Google, 5-11-2011
Дата кодирования : UTC 2011-06-05 23:39:58
Дата пометки : UTC 2011-06-05 23:40:02

Общее
Полное имя : E:Music Video (Vocal Trance)-4 (2008-2013)Sean Bay feat. Shahzoda - Flying Tonight (Official Music Video).mp4
Формат : MPEG-4
Профиль формата : Base Media / Version 2
Идентификатор кодека : mp42
Размер файла : 185 Мбайт
Продолжительность : 4 м. 59 с.
Режим общего битрейта : Переменный
Общий поток : 5185 Кбит/сек
Дата кодирования : UTC 2012-01-12 02:02:07
Дата пометки : UTC 2012-01-12 02:02:07
gsst : 0
gstd : 299630
gssd : B4A7DDA26MH1360586460889410
gshh : r6---sn-4g57kuel.c.youtube.com

Видео
Идентификатор : 1
Формат : AVC
Формат/Информация : Advanced Video Codec
Профиль формата : High@L4.0
Параметр CABAC формата : Да
Параметр ReFrames формата : 1 кадр
Идентификатор кодека : avc1
Идентификатор кодека/Информация : Advanced Video Coding
Продолжительность : 4 м. 59 с.
Битрейт : 5035 Кбит/сек
Максимальный битрейт : 9725 Кбит/сек
Ширина : 1920 пикселей
Высота : 1080 пикселей
Соотношение сторон : 16:9
Режим частоты кадров : Постоянный
Частота кадров : 23,976 кадра/сек
Цветовое пространство : YUV
Субдискретизация насыщенности : 4:2:0
Битовая глубина : 8 бит
Тип развёртки : Прогрессивная
Бит/(Пиксели*Кадры) : 0.101
Размер потока : 180 Мбайт (97%)
Дата пометки : UTC 2012-01-12 02:02:09

Аудио
Идентификатор : 2
Формат : AAC
Формат/Информация : Advanced Audio Codec
Профиль формата : LC
Идентификатор кодека : 40
Продолжительность : 4 м. 59 с.
Вид битрейта : Переменный
Битрейт : 148 Кбит/сек
Максимальный битрейт : 222 Кбит/сек
Каналы : 2 канала
Расположение каналов : Front: L R
Частота : 44,1 КГц
Метод сжатия : С потерями
Размер потока : 5,30 Мбайт (3%)
Заголовок : IsoMedia File Produced by Google, 5-11-2011
Дата кодирования : UTC 2012-01-12 02:02:08
Дата пометки : UTC 2012-01-12 02:02:09

Общее
Полное имя : E:Music Video (Vocal Trance)-4 (2008-2013)Sean Bay vs. Mehdi Mouelhi feat. Arabella - Maktoub (Official Music Video).mp4
Формат : MPEG-4
Профиль формата : Base Media / Version 2
Идентификатор кодека : mp42
Размер файла : 64,7 Мбайт
Продолжительность : 4 м. 0 с.
Режим общего битрейта : Переменный
Общий поток : 2260 Кбит/сек
Дата кодирования : UTC 2011-06-06 00:15:05
Дата пометки : UTC 2011-06-06 00:15:05
gsst : 0
gstd : 240280
gssd : BADC23AACHH1360586544117071
gshh : r12---sn-n8v7lnee.c.youtube.com

Видео
Идентификатор : 1
Формат : AVC
Формат/Информация : Advanced Video Codec
Профиль формата : High@L3.1
Параметр CABAC формата : Да
Параметр ReFrames формата : 1 кадр
Идентификатор кодека : avc1
Идентификатор кодека/Информация : Advanced Video Coding
Продолжительность : 4 м. 0 с.
Битрейт : 2103 Кбит/сек
Максимальный битрейт : 6540 Кбит/сек
Ширина : 1280 пикселей
Высота : 720 пикселей
Соотношение сторон : 16:9
Режим частоты кадров : Постоянный
Частота кадров : 25,000 кадров/сек
Цветовое пространство : YUV
Субдискретизация насыщенности : 4:2:0
Битовая глубина : 8 бит
Тип развёртки : Прогрессивная
Бит/(Пиксели*Кадры) : 0.091
Размер потока : 60,2 Мбайт (93%)
Дата пометки : UTC 2011-06-06 00:15:11

Аудио
Идентификатор : 2
Формат : AAC
Формат/Информация : Advanced Audio Codec
Профиль формата : LC
Идентификатор кодека : 40
Продолжительность : 4 м. 0 с.
Вид битрейта : Переменный
Битрейт : 152 Кбит/сек
Максимальный битрейт : 236 Кбит/сек
Каналы : 2 канала
Расположение каналов : Front: L R
Частота : 44,1 КГц
Метод сжатия : С потерями
Размер потока : 4,35 Мбайт (7%)
Заголовок : IsoMedia File Produced by Google, 5-11-2011
Дата кодирования : UTC 2011-06-06 00:15:08
Дата пометки : UTC 2011-06-06 00:15:11

Общее
Полное имя : E:Music Video (Vocal Trance)-4 (2008-2013)Starkillers feat. Richard Beynon & Natalie Peris - What Does Tomorrow Bring (Official Video).mp4
Формат : MPEG-4
Профиль формата : Base Media / Version 2
Идентификатор кодека : mp42
Размер файла : 43,5 Мбайт
Продолжительность : 3 м. 53 с.
Режим общего битрейта : Переменный
Общий поток : 1564 Кбит/сек
Дата кодирования : UTC 2013-01-24 14:50:03
Дата пометки : UTC 2013-01-24 14:50:03
gsst : 0
gstd : 233453
gssd : B2E1CF608MH1359208691851010
gshh : r5---sn-2apm-f5f6.c.youtube.com

Видео
Идентификатор : 1
Формат : AVC
Формат/Информация : Advanced Video Codec
Профиль формата : High@L3.1
Параметр CABAC формата : Да
Параметр ReFrames формата : 1 кадр
Идентификатор кодека : avc1
Идентификатор кодека/Информация : Advanced Video Coding
Продолжительность : 3 м. 53 с.
Битрейт : 1369 Кбит/сек
Максимальный битрейт : 4507 Кбит/сек
Ширина : 1280 пикселей
Высота : 720 пикселей
Соотношение сторон : 16:9
Режим частоты кадров : Постоянный
Частота кадров : 29,970 кадров/сек
Цветовое пространство : YUV
Субдискретизация насыщенности : 4:2:0
Битовая глубина : 8 бит
Тип развёртки : Прогрессивная
Бит/(Пиксели*Кадры) : 0.050
Размер потока : 38,1 Мбайт (88%)
Дата пометки : UTC 2013-01-24 14:50:04

Аудио
Идентификатор : 2
Формат : AAC
Формат/Информация : Advanced Audio Codec
Профиль формата : LC
Идентификатор кодека : 40
Продолжительность : 3 м. 53 с.
Вид битрейта : Переменный
Битрейт : 192 Кбит/сек
Максимальный битрейт : 201 Кбит/сек
Каналы : 2 канала
Расположение каналов : Front: L R
Частота : 44,1 КГц
Метод сжатия : С потерями
Размер потока : 5,34 Мбайт (12%)
Заголовок : IsoMedia File Produced by Google, 5-11-2011
Дата кодирования : UTC 2013-01-24 14:50:03
Дата пометки : UTC 2013-01-24 14:50:04

Общее
Полное имя : E:Music Video (Vocal Trance)-4 (2008-2013)Tenishia feat. Chris Jones - Memory of a Dream (Official Music Video).mp4
Формат : MPEG-4
Профиль формата : Base Media / Version 2
Идентификатор кодека : mp42
Размер файла : 147 Мбайт
Продолжительность : 4 м. 30 с.
Режим общего битрейта : Переменный
Общий поток : 4552 Кбит/сек
Дата кодирования : UTC 2013-02-07 13:22:05
Дата пометки : UTC 2013-02-07 13:22:05
gsst : 0
gstd : 270860
gssd : B57FB8486HH1360676608492819
gshh : r3---sn-5oqxgn-n8ve.c.youtube.com

Видео
Идентификатор : 1
Формат : AVC
Формат/Информация : Advanced Video Codec
Профиль формата : High@L4.0
Параметр CABAC формата : Да
Параметр ReFrames формата : 1 кадр
Параметр GOP формата : M=1, N=50
Идентификатор кодека : avc1
Идентификатор кодека/Информация : Advanced Video Coding
Продолжительность : 4 м. 30 с.
Битрейт : 4358 Кбит/сек
Максимальный битрейт : 7974 Кбит/сек
Ширина : 1920 пикселей
Высота : 1080 пикселей
Соотношение сторон : 16:9
Режим частоты кадров : Постоянный
Частота кадров : 25,000 кадров/сек
Цветовое пространство : YUV
Субдискретизация насыщенности : 4:2:0
Битовая глубина : 8 бит
Тип развёртки : Прогрессивная
Бит/(Пиксели*Кадры) : 0.084
Размер потока : 141 Мбайт (96%)
Дата пометки : UTC 2013-02-07 13:22:10

Аудио
Идентификатор : 2
Формат : AAC
Формат/Информация : Advanced Audio Codec
Профиль формата : LC
Идентификатор кодека : 40
Продолжительность : 4 м. 30 с.
Вид битрейта : Переменный
Битрейт : 192 Кбит/сек
Максимальный битрейт : 203 Кбит/сек
Каналы : 2 канала
Расположение каналов : Front: L R
Частота : 44,1 КГц
Метод сжатия : С потерями
Размер потока : 6,20 Мбайт (4%)
Заголовок : IsoMedia File Produced by Google, 5-11-2011
Дата кодирования : UTC 2013-02-07 13:22:09
Дата пометки : UTC 2013-02-07 13:22:10

Общее
Полное имя : E:Music Video (Vocal Trance)-4 (2008-2013)Tosch feat. Pit Bailay - Can't Touch You Adrienne (Frozen Skies Remix).mp4
Формат : MPEG-4
Профиль формата : Base Media / Version 2
Идентификатор кодека : mp42
Размер файла : 47,5 Мбайт
Продолжительность : 4 м. 52 с.
Режим общего битрейта : Переменный
Общий поток : 1362 Кбит/сек
Дата кодирования : UTC 2012-10-24 01:55:12
Дата пометки : UTC 2012-10-24 01:55:12
gsst : 0
gstd : 292338
gssd : B4A7DDAC5MH1359775236956061
gshh : r5---sn-4g57kuek.c.youtube.com

Видео
Идентификатор : 1
Формат : AVC
Формат/Информация : Advanced Video Codec
Профиль формата : High@L3.1
Параметр CABAC формата : Да
Параметр ReFrames формата : 1 кадр
Идентификатор кодека : avc1
Идентификатор кодека/Информация : Advanced Video Coding
Продолжительность : 4 м. 52 с.
Битрейт : 1168 Кбит/сек
Максимальный битрейт : 2780 Кбит/сек
Ширина : 1280 пикселей
Высота : 720 пикселей
Соотношение сторон : 16:9
Режим частоты кадров : Постоянный
Частота кадров : 25,000 кадров/сек
Цветовое пространство : YUV
Субдискретизация насыщенности : 4:2:0
Битовая глубина : 8 бит
Тип развёртки : Прогрессивная
Бит/(Пиксели*Кадры) : 0.051
Размер потока : 40,7 Мбайт (86%)
Дата пометки : UTC 2012-10-24 01:55:12

Аудио
Идентификатор : 2
Формат : AAC
Формат/Информация : Advanced Audio Codec
Профиль формата : LC
Идентификатор кодека : 40
Продолжительность : 4 м. 52 с.
Вид битрейта : Переменный
Битрейт : 192 Кбит/сек
Максимальный битрейт : 201 Кбит/сек
Каналы : 2 канала
Расположение каналов : Front: L R
Частота : 44,1 КГц
Метод сжатия : С потерями
Размер потока : 6,69 Мбайт (14%)
Заголовок : IsoMedia File Produced by Google, 5-11-2011
Дата кодирования : UTC 2012-10-24 01:55:12
Дата пометки : UTC 2012-10-24 01:55:12

Общее
Полное имя : E:Music Video (Vocal Trance)-4 (2008-2013)Trentemøller- Moan (Official music video).mp4
Формат : MPEG-4
Профиль формата : Base Media / Version 2
Идентификатор кодека : mp42
Размер файла : 91,4 Мбайт
Продолжительность : 3 м. 32 с.
Режим общего битрейта : Переменный
Общий поток : 3610 Кбит/сек
Дата кодирования : UTC 2010-02-05 21:31:12
Дата пометки : UTC 2010-02-05 21:31:12
gsst : 0
gstd : 212903
gssd : BADC23A6AMH1359788180460750
gshh : r10---sn-n8v7ln7y.c.youtube.com

Видео
Идентификатор : 2
Формат : AVC
Формат/Информация : Advanced Video Codec
Профиль формата : High@L4.0
Параметр CABAC формата : Да
Параметр ReFrames формата : 3 кадра
Идентификатор кодека : avc1
Идентификатор кодека/Информация : Advanced Video Coding
Продолжительность : 3 м. 32 с.
Битрейт : 3482 Кбит/сек
Максимальный битрейт : 6583 Кбит/сек
Ширина : 1920 пикселей
Высота : 1080 пикселей
Соотношение сторон : 16:9
Режим частоты кадров : Постоянный
Частота кадров : 25,000 кадров/сек
Цветовое пространство : YUV
Субдискретизация насыщенности : 4:2:0
Битовая глубина : 8 бит
Тип развёртки : Прогрессивная
Бит/(Пиксели*Кадры) : 0.067
Размер потока : 88,2 Мбайт (96%)
Заголовок : (C) 2007 Google Inc. v08.13.2007.
Дата кодирования : UTC 2010-02-05 21:31:12
Дата пометки : UTC 2010-02-05 21:31:13

Аудио
Идентификатор : 1
Формат : AAC
Формат/Информация : Advanced Audio Codec
Профиль формата : LC
Идентификатор кодека : 40
Продолжительность : 3 м. 32 с.
Вид битрейта : Переменный
Битрейт : 125 Кбит/сек
Максимальный битрейт : 149 Кбит/сек
Каналы : 2 канала
Расположение каналов : Front: L R
Частота : 44,1 КГц
Метод сжатия : С потерями
Размер потока : 3,18 Мбайт (3%)
Заголовок : (C) 2007 Google Inc. v08.13.2007.
Дата кодирования : UTC 2010-02-05 21:31:12
Дата пометки : UTC 2010-02-05 21:31:13

Общее
Полное имя : E:Music Video (Vocal Trance)-4 (2008-2013)tyDi feat. Sarah Howells - When I Go (Official Music Video).mp4
Формат : MPEG-4
Профиль формата : Base Media / Version 2
Идентификатор кодека : mp42
Размер файла : 181 Мбайт
Продолжительность : 4 м. 57 с.
Режим общего битрейта : Переменный
Общий поток : 5109 Кбит/сек
Дата кодирования : UTC 2013-01-27 14:42:05
Дата пометки : UTC 2013-01-27 14:42:05
gsst : 0
gstd : 297655
gssd : B2E1CF607HH1359552156187229
gshh : r4---sn-2apm-f5f6.c.youtube.com

Видео
Идентификатор : 1
Формат : AVC
Формат/Информация : Advanced Video Codec
Профиль формата : High@L4.0
Параметр CABAC формата : Да
Параметр ReFrames формата : 1 кадр
Идентификатор кодека : avc1
Идентификатор кодека/Информация : Advanced Video Coding
Продолжительность : 4 м. 57 с.
Битрейт : 4915 Кбит/сек
Максимальный битрейт : 19,1 Мбит/сек
Ширина : 1920 пикселей
Высота : 1080 пикселей
Соотношение сторон : 16:9
Режим частоты кадров : Постоянный
Частота кадров : 25,000 кадров/сек
Цветовое пространство : YUV
Субдискретизация насыщенности : 4:2:0
Битовая глубина : 8 бит
Тип развёртки : Прогрессивная
Бит/(Пиксели*Кадры) : 0.095
Размер потока : 174 Мбайт (96%)
Дата пометки : UTC 2013-01-27 14:42:06

Аудио
Идентификатор : 2
Формат : AAC
Формат/Информация : Advanced Audio Codec
Профиль формата : LC
Идентификатор кодека : 40
Продолжительность : 4 м. 57 с.
Вид битрейта : Переменный
Битрейт : 192 Кбит/сек
Максимальный битрейт : 203 Кбит/сек
Каналы : 2 канала
Расположение каналов : Front: L R
Частота : 44,1 КГц
Метод сжатия : С потерями
Размер потока : 6,81 Мбайт (4%)
Заголовок : IsoMedia File Produced by Google, 5-11-2011
Дата кодирования : UTC 2013-01-27 14:42:06
Дата пометки : UTC 2013-01-27 14:42:06


pb.wtf



Скачать Сборник видеоклипов через торрент http://pic.kartinco.top/images/2/v156xeae7c.jpg Скачать фильм Сборник видеоклипов через торрент бесплантно в хорошем качестве Треклист:Alex Oshean - Never the same (Official Music Video)Aligator Feat. Daniel Kandi - The Perfect Match (Official Music ... 10 10 9
Info! Золотая раздача, скачанное не засчитывается.
Торрент: Зарегистрирован [2013-03-16 18:09] · скачан: 216 раз
Статус: √ проверено
Размер: 3.1 GB
Как cкачать? Как скачать Сборник видеоклипов через торрент | UTorrent

28-11-2019 20:33  

Отключить всю рекламу на сайте

    Дорогой пользователь! Огромная просьба, поблагодарите релизера, оцените раздачу и оставьте свои комментарий, если Вы скачали Сборник видеоклипов через торрент бесплатно! Внесите свою лепту в развитие PiratBit!
    Комментировать посты могут только пользователи прошедшие не сложную регистрацию
    Показать сообщения:    

    Сборник видеоклипов через торрент
    Скачать бесплатно Сборник видеоклипов
    Сборник видеоклипов скачать торрент
    Сборник видеоклипов смотреть онлайн
    Cкачать фильм Сборник видеоклипов бесплатно
    Сборник видеоклипов скачать торрент в хорошем качестве
    Сборник видеоклипов смотреть онлайн бесплатно в хорошем качестве


    Вы не можете начинать темы
    Вы не можете отвечать на сообщения
    Вы не можете редактировать свои сообщения
    Вы не можете удалять свои сообщения
    Вы не можете голосовать в опросах
    Вы не можете прикреплять файлы к сообщениям
    Вы можете скачивать файлы