Ссылка на приватное зеркало нашего сайта всего за 1$. Внимание количество ограничено!!!

2 сезон

iTunes

1 сезон

1

iTunes

iTunes

iTunes

1 сезон

RePack

30

ИГРА 18+

pack

ВАЖНО

!!Акция!!

Alien_RageХит недели

RePack

MK11
pack

Забери бонус

RePack

jed

!!Акция!!

Alien_Rage

RePack

fifa19

RePack

Assassins Creed: Odyssey

RePack

NEED FOR SPEED™ PAYBACK

4 сезон

9 сезон

Бесстыжие 9 сезон

Все сериалы

все сериалы на PB.wtf

RePack

FAR CRY 5
  

Если хочешь хорошо провести время, звони… / For a Good Time, Call.. (Джеми Трэвис) [2012 г., комедия, BDRip 1080p, DUB, лицензия] pb.wtf

Если хочешь хорошо провести время, звони… через торрент pb.wtf

Размер: 6.74 GB | Добавлен: 7 лет 7 мес. назад | Торрент скачан:108 раз
Скачать  

16-03-2013 20:05 Если хочешь хорошо провести время, звони… Скачать торрент  

Если хочешь хорошо провести время звони… / For a Good Time Call...
Год выпуска: 2012
Страна: США
Жанр: комедия,
Продолжительность: 01:27:27
Перевод: Дубляж, Лицензия
Субтитры: English

Режиссер: Джеми Трэвис
Продюссер: Джош Кесселман, Лорен Миллер, Кэти Энн Нейлон
Сценарий: Лорен Миллер, Кэти Энн Нейлон

Мировой рейтинг IMDB 5.80 (3 543)


В ролях: Лорен Миллер, Джеймс Волк, Эри Грейнор, Джастин Лонг, Лоуренс Мэндли, Эдди Геллер, Джош Рубен, Стивен Шоу, Мими Роджерс, Дон МакМанус,

Описание: Две молодые девушки запускают собственный бизнес, представляющий собой предоставление услуг секса по телефону.

Качество: BDRip 1080p
Формат: MKV
Видео кодек: H.264
Аудио кодек: AC3
Видео: 1920 x 816 (2.353) at 23.976 fps AVC at 9180 Кбит/сек
Аудио#1: AC-3 at 384 Кбит/сек 6 каналов, 48,0 КГц RUS
Аудио#2: DTS at 1510 Кбит/сек 6 каналов, 48,0 КГц ENG
Релиз от: =Sудья=
Общее
Уникальный идентификатор : 236849465407963590045454476400723131524 (0xB22F8C3AECE876139A5FB39E243A7C84)
Полное имя : D:ФильмыEsli.Hochesh.Horosho.Provesti.Vremja.Zvoni.2012.D.BDRip.1080p.=Sудья=.mkv
Формат : Matroska
Версия формата : Version 4 / Version 2
Размер файла : 6,74 Гбайт
Продолжительность : 1 ч. 27 м.
Общий поток : 11,0 Мбит/сек
Название фильма : =Sудья=
Дата кодирования : UTC 2010-02-22 21:41:31
Программа кодирования : mkvmerge v5.9.0 ('On The Loose') built on Dec 9 2012 15:37:01
Библиотека кодирования : libebml v1.3.0 + libmatroska v1.4.0

Видео
Идентификатор : 1
Формат : AVC
Формат/Информация : Advanced Video Codec
Профиль формата : High@L4.1
Параметр CABAC формата : Да
Параметр ReFrames формата : 5 кадров
Режим смешивания : Header stripping
Идентификатор кодека : V_MPEG4/ISO/AVC
Продолжительность : 1 ч. 27 м.
Битрейт : 9180 Кбит/сек
Ширина : 1920 пикселей
Высота : 816 пикселей
Соотношение сторон : 2,35:1
Частота кадров : 23,976 кадра/сек
Цветовое пространство : YUV
Субдискретизация насыщенности : 4:2:0
Битовая глубина : 8 бит
Тип развёртки : Прогрессивная
Бит/(Пиксели*Кадры) : 0.244
Размер потока : 5,45 Гбайт (81%)
Заголовок : Esli.hochesh.horosho.provesti.vremja.zvoni.2012.UNRATED.BluRay.1080p.=Sудья=
Библиотека кодирования : x264 core 125 r2208 d9d2288
Настройки программы : cabac=1 / ref=5 / deblock=1:-3:-3 / analyse=0x3:0x113 / me=umh / subme=10 / psy=1 / psy_rd=1.00:0.05 / mixed_ref=1 / me_range=32 / chroma_me=1 / trellis=2 / 8x8dct=1 / cqm=0 / deadzone=21,11 / fast_pskip=0 / chroma_qp_offset=-2 / threads=8 / lookahead_threads=1 / sliced_threads=0 / nr=0 / decimate=1 / interlaced=0 / bluray_compat=0 / constrained_intra=0 / bframes=5 / b_pyramid=2 / b_adapt=2 / b_bias=0 / direct=3 / weightb=1 / open_gop=0 / weightp=2 / keyint=250 / keyint_min=23 / scenecut=40 / intra_refresh=0 / rc=2pass / mbtree=0 / bitrate=9180 / ratetol=1.0 / qcomp=0.70 / qpmin=0 / qpmax=69 / qpstep=4 / cplxblur=20.0 / qblur=0.5 / ip_ratio=1.40 / pb_ratio=1.30 / aq=2:1.00
Язык : English
Default : Да
Forced : Да

Аудио #1
Идентификатор : 2
Формат : AC-3
Формат/Информация : Audio Coding 3
Расширение режима : CM (complete main)
Режим смешивания : Header stripping
Идентификатор кодека : A_AC3
Продолжительность : 1 ч. 27 м.
Вид битрейта : Постоянный
Битрейт : 384 Кбит/сек
Каналы : 6 каналов
Расположение каналов : Front: L C R, Side: L R, LFE
Частота : 48,0 КГц
Битовая глубина : 16 бит
Метод сжатия : С потерями
Размер потока : 240 Мбайт (3%)
Заголовок : DD 5.1 @ 384 kbps - Dub, R5
Язык : Russian
Default : Да
Forced : Да

Аудио #2
Идентификатор : 3
Формат : DTS
Формат/Информация : Digital Theater Systems
Режим смешивания : Header stripping
Идентификатор кодека : A_DTS
Продолжительность : 1 ч. 27 м.
Вид битрейта : Постоянный
Битрейт : 1510 Кбит/сек
Каналы : 6 каналов
Расположение каналов : Front: L C R, Side: L R, LFE
Частота : 48,0 КГц
Битовая глубина : 24 бит
Метод сжатия : С потерями
Размер потока : 944 Мбайт (14%)
Заголовок : DTS 5.1 @ 1536 kbps
Язык : English
Default : Нет
Forced : Нет

Текст
Идентификатор : 4
Формат : UTF-8
Идентификатор кодека : S_TEXT/UTF8
Идентификатор кодека/Информация : UTF-8 Plain Text
Язык : English
Default : Нет
Forced : Нет


Если хочешь хорошо провести время, звони… скачать торрент


pb.wtf



Скачать Если хочешь хорошо провести время, звони… через торрент http://pic.kartinco.top/images/2/pptjuxcyhz.jpg Скачать фильм Если хочешь хорошо провести время, звони… через торрент бесплантно в хорошем качестве Описание: Две молодые девушки запускают собственный бизнес, представляющий собой предоставление услуг секса по ... 10 10 1
Info! Золотая раздача, скачанное не засчитывается.
Торрент: Зарегистрирован [2013-03-16 20:05] · скачан: 108 раз
Статус: √ проверено
Размер: 6.74 GB
Как cкачать? Как скачать Если хочешь хорошо провести время, звони… через торрент | qTorrent

% Раздел Тема Автор DL S | L
Фильмы 2012 [ 742 MB ] Если хочешь хорошо провести время звони… / For a Good Time Call.. [2012 HDRip] DUB Oдин 777 Скачать
1 | 0
Фильмы 2012 [ 1.37 GB ] Если хочешь хорошо провести время звони… / For a Good Time Call.. [2012 HDRip DUB лицензия] WISE Скачать
1 | 0
Фильмы [HD 720p, 1080p] (Хороший звук DUB, MVO) [ 4.16 GB ] Если хочешь хорошо провести время звони… / For a Good Time Call.. [2012 BDRip 720p DUB лицензия] Sудья Скачать
1 | 0
Фильмы (DVD фильмы) [ 5.88 GB ] Если хочешь хорошо провести время звони… / For a Good Time Call.. [2012 DVD9] R5 voovaz Скачать
1 | 0
Фильмы без перевода [ 1011 MB ] Если хочешь хорошо провести время звони… / For a Good Time Call.. [2012 WEB-DLRip] Перевод отсутствует smaster Скачать
1 | 0

28-11-2019 20:33  

Отключить всю рекламу на сайте

16-03-2013 20:23 Если хочешь хорошо провести время, звони… Скачать торрент  

"Описание: Две молодые девушки запускают собственный бизнес, представляющий собой предоставление услуг секса по телефону."
предстовляющий собой предоставление... брр...
услуг секса по телефону... омг... возможно услугу секс-по телефону
очучение, что описание какой-то кривой перевод :jest3:pb.wtf



16-03-2013 20:26 Если хочешь хорошо провести время, звони… Скачать торрент  

Semish писал(а):

"Описание: Две молодые девушки запускают собственный бизнес, представляющий собой предоставление услуг секса по телефону."
предстовляющий собой предоставление... брр...
услуг секса по телефону... омг... возможно услугу секс-по телефону
очучение, что описание какой-то кривой перевод :jest3:

Альтернативный перевод
Бывший колледжа заклятых Лорен и Кэти переехать в сказочный квартиру Gramercy Park, и для того, чтобы свести концы с концами, вряд ли пара запустить линию секса по телефону вместе.
pb.wtf



    Дорогой пользователь! Огромная просьба, поблагодарите релизера, оцените раздачу и оставьте свои комментарий, если Вы скачали Если хочешь хорошо провести время, звони… через торрент бесплатно! Внесите свою лепту в развитие PiratBit!
    Комментировать посты могут только пользователи прошедшие не сложную регистрацию
    Показать сообщения:    

    Если хочешь хорошо провести время, звони… через торрент
    Скачать бесплатно Если хочешь хорошо провести время, звони…
    Если хочешь хорошо провести время, звони… скачать торрент
    Если хочешь хорошо провести время, звони… смотреть онлайн
    Cкачать фильм Если хочешь хорошо провести время, звони… бесплатно
    Если хочешь хорошо провести время, звони… скачать торрент в хорошем качестве
    Если хочешь хорошо провести время, звони… смотреть онлайн бесплатно в хорошем качестве


    Вы не можете начинать темы
    Вы не можете отвечать на сообщения
    Вы не можете редактировать свои сообщения
    Вы не можете удалять свои сообщения
    Вы не можете голосовать в опросах
    Вы не можете прикреплять файлы к сообщениям
    Вы можете скачивать файлы