Присоединяйтесь к нам в Telegram!, здесь всегда актуальный адрес сайта, оперативная поддержка и многое другое!!

>

5.9

iTunes

7.4

iTunes

9.4

1 сезон

1

7.4

2 сезон

7.2

iTunes

7.3

1 сезон

13

6.1

iTunes

8.3

GOG

30

ULTIMATE

pack

9.9

Лицензия

ВАЖНО

ИГРА 18+

pack

7.3

RePack

MK11

7.7

RePack

jed

7.8

RePack

fifa19

8.5

RePack

RDR2

RePack

NEED FOR SPEED™ PAYBACK

5 сезон

9 сезон

Бесстыжие 9 сезон

Все сериалы

все сериалы на PB.wtf

RePack

FAR CRY 5

Anonymous, доброй ночи, мы катастрофически не успеваем собрать деньги на оплату серверов, помогите нам пожалуйста 5,10,15р., для нас важна любая помощь . В качестве благодарности мы отключим Вам всю рекламу на сайте (укажите свой ник в строку Ваше имя)!

×
  
Magnet ссылка

Сборник видеоклипов / Music Video vol.5 [2008-2013 г., Trance, WEB-DLRip] pb.wtf

Сборник видеоклипов через торрент pb.wtf

Размер: 2.98 GB | Добавлен: 8 лет 8 мес. назад | Торрент скачан:428 раз
Смотреть онлайн Сборник видеоклипов | Скачать    Ребята, помогите собрать деньги на оплату серверов!!!

16-03-2013 20:10 Сборник видеоклипов Скачать торрент  

Сборник видеоклипов / Music Video vol.5
Год выпуска: 2008-2013
Страна: All World
Жанр: Trance
Продолжительность: 01:52:45
1.4 SТrings - Ready To Fall (Official Music Video)
2.Aeron Aether, Mango, Civil Servants - Searching For A Memory (Official Music Video)
3.Aleksey Sladkov, Matthew Preffekt, Sasha August - Bounty (Official Music Video)
4.Aly & Fila feat ID - ID (Official Music Video)
5.Armin van Buuren Feat Jennifer Rene - Fine Without You (Official Music Video)
6.Armin van Buuren feat VanVelzen - Broken Tonight (Official Music Video)
7.Arty, Nadia Ali & BT - Must Be The Love (Official Music Video)
8.Cressida ft. Roxanne Barton - Heart On My Sleeve (Official Music Video)
9.Damien J. Carter Ft. Damien Heck - Glacier In The Sun (Official Music Video)
10.Dan & Sam feat. Maxx Hennard - Walls (Original Mix) (Official Music Video)
11.Dash Berlin ft. Chris Madin - Fool For Life (Official Music Video)
12.EDX & Tamra Keenan - Out Of The Rain (Official Music Video)
13.Emotive Tunes feat Selecte - I Wanna Be With You (Official Music Video)
14.Headstrong feat. Stine Grove - Love Until It Hurts (Music Video)
15.Jonas Steur ft. Jennifer Hershman - Feel Your Lows So Heavy (Official Music Video)
16.Kyau & Albert - This Love (Official Music Video)
17.Leonid Rudenko ft. Daniella - Summerfish (Official Music Video)
18.Resist Temptation ft. HeawenwarD - Questions (Official Music Video)
19.Resist Temptation ft. Lizzet - Still Alone (Official Music Video)
20.Selecta - Find you (Official Music Video)
21.Sequence 11 feat. Aliciya Angel - Until We Meet Again (Official Music Video)
22.Snatt & Vix Feat. Alexandra Badoi - Cold Shower (Official Music Video)
23.Tiddey feat. Keo - Lost (Single Mix) (Unofficial Music Video)
24.Zirenz - Mountain Prayer (Original Mix) (Music Video)
25.Zirenz - Timeless (Matt Holliday Remix) (Official Music Video)
Качество: WEB-DLRip
Формат: MPEG-4
Видео кодек: H.26x
Аудио кодек: AAC
Видео: 1280x720,1920x1080; 23,976 кадра/сек - 30,000 кадров/сек; ~ 4000 Кбит/сек
Аудио#1: AAC, 2.0, ~192 Кбит/сек"Скриншоты"скриншот   скриншот   скриншот   скриншот  
скриншот   скриншот   скриншот   скриншот  

Общее
Полное имя : E:Music Video (Vocal Trance)-5(2008-2013)4 Strings - Ready To Fall (Music Video ).mp4
Формат : MPEG-4
Профиль формата : Base Media / Version 2
Идентификатор кодека : mp42
Размер файла : 57,9 Мбайт
Продолжительность : 3 м. 51 с.
Режим общего битрейта : Переменный
Общий поток : 2100 Кбит/сек
Дата кодирования : UTC 2013-02-01 07:09:02
Дата пометки : UTC 2013-02-01 07:09:02
gsst : 0
gstd : 231501
gssd : B57FB8486MM1361547804655803
gshh : r3---sn-5oqxgn-n8ve.c.youtube.com

Видео
Идентификатор : 1
Формат : AVC
Формат/Информация : Advanced Video Codec
Профиль формата : High@L3.1
Параметр CABAC формата : Да
Параметр ReFrames формата : 1 кадр
Идентификатор кодека : avc1
Идентификатор кодека/Информация : Advanced Video Coding
Продолжительность : 3 м. 51 с.
Битрейт : 1906 Кбит/сек
Максимальный битрейт : 5822 Кбит/сек
Ширина : 1280 пикселей
Высота : 720 пикселей
Соотношение сторон : 16:9
Режим частоты кадров : Постоянный
Частота кадров : 30,000 кадров/сек
Цветовое пространство : YUV
Субдискретизация насыщенности : 4:2:0
Битовая глубина : 8 бит
Тип развёртки : Прогрессивная
Бит/(Пиксели*Кадры) : 0.069
Размер потока : 52,6 Мбайт (91%)
Дата пометки : UTC 2013-02-01 07:09:03

Аудио
Идентификатор : 2
Формат : AAC
Формат/Информация : Advanced Audio Codec
Профиль формата : LC
Идентификатор кодека : 40
Продолжительность : 3 м. 51 с.
Вид битрейта : Переменный
Битрейт : 192 Кбит/сек
Максимальный битрейт : 202 Кбит/сек
Каналы : 2 канала
Расположение каналов : Front: L R
Частота : 44,1 КГц
Метод сжатия : С потерями
Размер потока : 5,30 Мбайт (9%)
Заголовок : IsoMedia File Produced by Google, 5-11-2011
Дата кодирования : UTC 2013-02-01 07:09:03
Дата пометки : UTC 2013-02-01 07:09:03

Общее
Полное имя : E:Music Video (Vocal Trance)-5(2008-2013)Aeron Aether, Mango, Civil Servants - Searching For A Memory (Official Music Video).mp4
Формат : MPEG-4
Профиль формата : Base Media / Version 2
Идентификатор кодека : mp42
Размер файла : 131 Мбайт
Продолжительность : 3 м. 59 с.
Режим общего битрейта : Переменный
Общий поток : 4578 Кбит/сек
Дата кодирования : UTC 2010-11-04 06:54:31
Дата пометки : UTC 2010-11-04 06:54:31
gsst : 0
gstd : 239185
gssd : B4A7DDA01MH1361548178596481
gshh : r1---sn-4g57kuee.c.youtube.com

Видео
Идентификатор : 1
Формат : AVC
Формат/Информация : Advanced Video Codec
Профиль формата : High@L4.0
Параметр CABAC формата : Да
Параметр ReFrames формата : 1 кадр
Параметр GOP формата : M=1, N=30
Идентификатор кодека : avc1
Идентификатор кодека/Информация : Advanced Video Coding
Продолжительность : 3 м. 59 с.
Битрейт : 4443 Кбит/сек
Максимальный битрейт : 14,9 Мбит/сек
Ширина : 1920 пикселей
Высота : 1080 пикселей
Соотношение сторон : 16:9
Режим частоты кадров : Переменный
Частота кадров : 29,970 кадров/сек
Минимальная частота кадров : 29,412 кадров/сек
Максимальная частота кадров : 200,000 кадров/сек
Цветовое пространство : YUV
Субдискретизация насыщенности : 4:2:0
Битовая глубина : 8 бит
Тип развёртки : Прогрессивная
Бит/(Пиксели*Кадры) : 0.072
Размер потока : 127 Мбайт (97%)
Дата пометки : UTC 2010-11-04 06:54:36

Аудио
Идентификатор : 2
Формат : AAC
Формат/Информация : Advanced Audio Codec
Профиль формата : LC
Идентификатор кодека : 40
Продолжительность : 3 м. 59 с.
Вид битрейта : Переменный
Битрейт : 128 Кбит/сек
Максимальный битрейт : 150 Кбит/сек
Каналы : 2 канала
Расположение каналов : Front: L R
Частота : 44,1 КГц
Метод сжатия : С потерями
Размер потока : 3,65 Мбайт (3%)
Заголовок : (C) 2007 Google Inc. v08.13.2007.
Дата кодирования : UTC 2010-11-04 06:54:34
Дата пометки : UTC 2010-11-04 06:54:36

Общее
Полное имя : E:Music Video (Vocal Trance)-5(2008-2013)Aleksey Sladkov, Matthew Preffekt, Sasha August - Bounty [Official Video].mp4
Формат : MPEG-4
Профиль формата : Base Media / Version 2
Идентификатор кодека : mp42
Размер файла : 144 Мбайт
Продолжительность : 3 м. 28 с.
Режим общего битрейта : Переменный
Общий поток : 5786 Кбит/сек
Дата кодирования : UTC 2012-09-11 08:52:51
Дата пометки : UTC 2012-09-11 08:52:51
gsst : 0
gstd : 208653
gssd : B4A7DD824MH1361043017136079
gshh : r4---sn-cg07luel.c.youtube.com

Видео
Идентификатор : 1
Формат : AVC
Формат/Информация : Advanced Video Codec
Профиль формата : High@L4.0
Параметр CABAC формата : Да
Параметр ReFrames формата : 1 кадр
Идентификатор кодека : avc1
Идентификатор кодека/Информация : Advanced Video Coding
Продолжительность : 3 м. 28 с.
Битрейт : 5592 Кбит/сек
Максимальный битрейт : 12,2 Мбит/сек
Ширина : 1920 пикселей
Высота : 1080 пикселей
Соотношение сторон : 16:9
Режим частоты кадров : Постоянный
Частота кадров : 25,000 кадров/сек
Цветовое пространство : YUV
Субдискретизация насыщенности : 4:2:0
Битовая глубина : 8 бит
Тип развёртки : Прогрессивная
Бит/(Пиксели*Кадры) : 0.108
Размер потока : 139 Мбайт (97%)
Дата пометки : UTC 2012-09-11 08:52:51

Аудио
Идентификатор : 2
Формат : AAC
Формат/Информация : Advanced Audio Codec
Профиль формата : LC
Идентификатор кодека : 40
Продолжительность : 3 м. 28 с.
Вид битрейта : Переменный
Битрейт : 192 Кбит/сек
Максимальный битрейт : 203 Кбит/сек
Каналы : 2 канала
Расположение каналов : Front: L R
Частота : 44,1 КГц
Метод сжатия : С потерями
Размер потока : 4,77 Мбайт (3%)
Заголовок : IsoMedia File Produced by Google, 5-11-2011
Дата кодирования : UTC 2012-09-11 08:52:51
Дата пометки : UTC 2012-09-11 08:52:51

Общее
Полное имя : E:Music Video (Vocal Trance)-5(2008-2013)Aly & Fila feat ID - ID ( Music Video ).mp4
Формат : MPEG-4
Профиль формата : Base Media / Version 2
Идентификатор кодека : mp42
Размер файла : 35,3 Мбайт
Продолжительность : 3 м. 54 с.
Режим общего битрейта : Переменный
Общий поток : 1265 Кбит/сек
Дата кодирования : UTC 2013-02-03 12:57:31
Дата пометки : UTC 2013-02-03 12:57:31
gsst : 0
gstd : 234428
gssd : B57FB8489HH1361548335603523
gshh : r6---sn-5oqxgn-n8ve.c.youtube.com

Видео
Идентификатор : 1
Формат : AVC
Формат/Информация : Advanced Video Codec
Профиль формата : High@L3.1
Параметр CABAC формата : Да
Параметр ReFrames формата : 1 кадр
Идентификатор кодека : avc1
Идентификатор кодека/Информация : Advanced Video Coding
Продолжительность : 3 м. 54 с.
Битрейт : 1070 Кбит/сек
Максимальный битрейт : 2279 Кбит/сек
Ширина : 1280 пикселей
Высота : 720 пикселей
Соотношение сторон : 16:9
Режим частоты кадров : Постоянный
Частота кадров : 30,000 кадров/сек
Цветовое пространство : YUV
Субдискретизация насыщенности : 4:2:0
Битовая глубина : 8 бит
Тип развёртки : Прогрессивная
Бит/(Пиксели*Кадры) : 0.039
Размер потока : 29,9 Мбайт (85%)
Дата пометки : UTC 2013-02-03 12:57:32

Аудио
Идентификатор : 2
Формат : AAC
Формат/Информация : Advanced Audio Codec
Профиль формата : LC
Идентификатор кодека : 40
Продолжительность : 3 м. 54 с.
Вид битрейта : Переменный
Битрейт : 192 Кбит/сек
Максимальный битрейт : 201 Кбит/сек
Каналы : 2 канала
Расположение каналов : Front: L R
Частота : 44,1 КГц
Метод сжатия : С потерями
Размер потока : 5,36 Мбайт (15%)
Заголовок : IsoMedia File Produced by Google, 5-11-2011
Дата кодирования : UTC 2013-02-03 12:57:31
Дата пометки : UTC 2013-02-03 12:57:32

Общее
Полное имя : E:Music Video (Vocal Trance)-5(2008-2013)Armin van Buuren Feat Jennifer Rene - Fine Without You (Official Video).mp4
Формат : MPEG-4
Профиль формата : Base Media / Version 2
Идентификатор кодека : mp42
Размер файла : 95,2 Мбайт
Продолжительность : 3 м. 44 с.
Режим общего битрейта : Переменный
Общий поток : 3562 Кбит/сек
Дата кодирования : UTC 2012-04-04 02:13:01
Дата пометки : UTC 2012-04-04 02:13:01
gsst : 0
gstd : 224745
gssd : B4A7DD105HH1361986090390044
gshh : r5---sn-5hn7su7e.c.youtube.com

Видео
Идентификатор : 1
Формат : AVC
Формат/Информация : Advanced Video Codec
Профиль формата : High@L4.0
Параметр CABAC формата : Да
Параметр ReFrames формата : 1 кадр
Параметр GOP формата : M=1, N=25
Идентификатор кодека : avc1
Идентификатор кодека/Информация : Advanced Video Coding
Продолжительность : 3 м. 44 с.
Битрейт : 3413 Кбит/сек
Максимальный битрейт : 8660 Кбит/сек
Ширина : 1920 пикселей
Высота : 960 пикселей
Соотношение сторон : 2,000
Режим частоты кадров : Постоянный
Частота кадров : 25,000 кадров/сек
Цветовое пространство : YUV
Субдискретизация насыщенности : 4:2:0
Битовая глубина : 8 бит
Тип развёртки : Прогрессивная
Бит/(Пиксели*Кадры) : 0.074
Размер потока : 91,2 Мбайт (96%)
Дата пометки : UTC 2012-04-04 02:13:01

Аудио
Идентификатор : 2
Формат : AAC
Формат/Информация : Advanced Audio Codec
Профиль формата : LC
Идентификатор кодека : 40
Продолжительность : 3 м. 44 с.
Вид битрейта : Переменный
Битрейт : 144 Кбит/сек
Максимальный битрейт : 249 Кбит/сек
Каналы : 2 канала
Расположение каналов : Front: L R
Частота : 44,1 КГц
Метод сжатия : С потерями
Размер потока : 3,92 Мбайт (4%)
Заголовок : IsoMedia File Produced by Google, 5-11-2011
Дата кодирования : UTC 2012-04-04 02:13:01
Дата пометки : UTC 2012-04-04 02:13:01

Общее
Полное имя : E:Music Video (Vocal Trance)-5(2008-2013)Armin van Buuren feat VanVelzen - Broken Tonight.mp4
Формат : MPEG-4
Профиль формата : Base Media / Version 2
Идентификатор кодека : mp42
Размер файла : 48,0 Мбайт
Продолжительность : 3 м. 5 с.
Режим общего битрейта : Переменный
Общий поток : 2169 Кбит/сек
Дата кодирования : UTC 2010-01-12 18:53:20
Дата пометки : UTC 2010-01-12 18:53:20
gsst : 0
gstd : 186153
gssd : BADC23A62MH1361986003416132
gshh : r2---sn-n8v7ln7y.c.youtube.com

Видео
Идентификатор : 2
Формат : AVC
Формат/Информация : Advanced Video Codec
Профиль формата : High@L3.1
Параметр CABAC формата : Да
Параметр ReFrames формата : 3 кадра
Идентификатор кодека : avc1
Идентификатор кодека/Информация : Advanced Video Coding
Продолжительность : 3 м. 5 с.
Битрейт : 2041 Кбит/сек
Максимальный битрейт : 4129 Кбит/сек
Ширина : 1280 пикселей
Высота : 720 пикселей
Соотношение сторон : 16:9
Режим частоты кадров : Постоянный
Частота кадров : 29,970 кадров/сек
Цветовое пространство : YUV
Субдискретизация насыщенности : 4:2:0
Битовая глубина : 8 бит
Тип развёртки : Прогрессивная
Бит/(Пиксели*Кадры) : 0.074
Размер потока : 45,2 Мбайт (94%)
Заголовок : (C) 2007 Google Inc. v08.13.2007.
Дата кодирования : UTC 2010-01-12 18:53:20
Дата пометки : UTC 2010-01-12 18:53:21

Аудио
Идентификатор : 1
Формат : AAC
Формат/Информация : Advanced Audio Codec
Профиль формата : LC
Идентификатор кодека : 40
Продолжительность : 3 м. 5 с.
Вид битрейта : Переменный
Битрейт : 125 Кбит/сек
Максимальный битрейт : 288 Кбит/сек
Каналы : 2 канала
Расположение каналов : Front: L R
Частота : 44,1 КГц
Метод сжатия : С потерями
Размер потока : 2,78 Мбайт (6%)
Заголовок : (C) 2007 Google Inc. v08.13.2007.
Дата кодирования : UTC 2010-01-12 18:53:20
Дата пометки : UTC 2010-01-12 18:53:21

Общее
Полное имя : E:Music Video (Vocal Trance)-5(2008-2013)Arty, Nadia Ali & BT - Must Be The Love (Official Music Video).mp4
Формат : MPEG-4
Профиль формата : Base Media / Version 2
Идентификатор кодека : mp42
Размер файла : 79,6 Мбайт
Продолжительность : 4 м. 57 с.
Режим общего битрейта : Переменный
Общий поток : 2245 Кбит/сек
Дата кодирования : UTC 2013-02-21 16:18:03
Дата пометки : UTC 2013-02-21 16:18:03
gsst : 0
gstd : 297586
gssd : BD075E007HH1361553451414845
gshh : r4---sn-2apm-f5fs.c.youtube.com

Видео
Идентификатор : 1
Формат : AVC
Формат/Информация : Advanced Video Codec
Профиль формата : High@L4.0
Параметр CABAC формата : Да
Параметр ReFrames формата : 1 кадр
Идентификатор кодека : avc1
Идентификатор кодека/Информация : Advanced Video Coding
Продолжительность : 4 м. 57 с.
Битрейт : 2051 Кбит/сек
Максимальный битрейт : 4333 Кбит/сек
Ширина : 1920 пикселей
Высота : 1080 пикселей
Соотношение сторон : 16:9
Режим частоты кадров : Постоянный
Частота кадров : 25,000 кадров/сек
Цветовое пространство : YUV
Субдискретизация насыщенности : 4:2:0
Битовая глубина : 8 бит
Тип развёртки : Прогрессивная
Бит/(Пиксели*Кадры) : 0.040
Размер потока : 72,7 Мбайт (91%)
Дата пометки : UTC 2013-02-21 16:18:07

Аудио
Идентификатор : 2
Формат : AAC
Формат/Информация : Advanced Audio Codec
Профиль формата : LC
Идентификатор кодека : 40
Продолжительность : 4 м. 57 с.
Вид битрейта : Переменный
Битрейт : 192 Кбит/сек
Максимальный битрейт : 202 Кбит/сек
Каналы : 2 канала
Расположение каналов : Front: L R
Частота : 44,1 КГц
Метод сжатия : С потерями
Размер потока : 6,81 Мбайт (9%)
Заголовок : IsoMedia File Produced by Google, 5-11-2011
Дата кодирования : UTC 2013-02-21 16:18:06
Дата пометки : UTC 2013-02-21 16:18:07

Общее
Полное имя : E:Music Video (Vocal Trance)-5(2008-2013)Cressida ft. Roxanne Barton - Heart On My Sleeve (Kyau & Albert Video Edit).mp4
Формат : MPEG-4
Профиль формата : Base Media / Version 2
Идентификатор кодека : mp42
Размер файла : 157 Мбайт
Продолжительность : 3 м. 58 с.
Режим общего битрейта : Переменный
Общий поток : 5527 Кбит/сек
Дата кодирования : UTC 2011-02-19 16:29:27
Дата пометки : UTC 2011-02-19 16:29:27
gsst : 0
gstd : 238681
gssd : B4A7DD1A8MH1362053952258376
gshh : r8---sn-5hn7su7d.c.youtube.com

Видео
Идентификатор : 1
Формат : AVC
Формат/Информация : Advanced Video Codec
Профиль формата : High@L4.0
Параметр CABAC формата : Да
Параметр ReFrames формата : 1 кадр
Идентификатор кодека : avc1
Идентификатор кодека/Информация : Advanced Video Coding
Продолжительность : 3 м. 58 с.
Битрейт : 5402 Кбит/сек
Максимальный битрейт : 16,2 Мбит/сек
Ширина : 1920 пикселей
Высота : 1080 пикселей
Соотношение сторон : 16:9
Режим частоты кадров : Переменный
Частота кадров : 29,970 кадров/сек
Минимальная частота кадров : 29,412 кадров/сек
Максимальная частота кадров : 200,000 кадров/сек
Цветовое пространство : YUV
Субдискретизация насыщенности : 4:2:0
Битовая глубина : 8 бит
Тип развёртки : Прогрессивная
Бит/(Пиксели*Кадры) : 0.087
Размер потока : 154 Мбайт (98%)
Дата пометки : UTC 2011-02-19 16:29:28

Аудио
Идентификатор : 2
Формат : AAC
Формат/Информация : Advanced Audio Codec
Профиль формата : LC
Идентификатор кодека : 40
Продолжительность : 3 м. 58 с.
Вид битрейта : Переменный
Битрейт : 118 Кбит/сек
Максимальный битрейт : 267 Кбит/сек
Каналы : 2 канала
Расположение каналов : Front: L R
Частота : 44,1 КГц
Метод сжатия : С потерями
Размер потока : 3,37 Мбайт (2%)
Заголовок : (C) 2007 Google Inc. v08.13.2007.
Дата кодирования : UTC 2011-02-19 16:29:28
Дата пометки : UTC 2011-02-19 16:29:28

Общее
Полное имя : E:Music Video (Vocal Trance)-5(2008-2013)Damien J. Carter Ft. Damien Heck - Glacier In The Sun (HD MUSICVIDEO).mp4
Формат : MPEG-4
Профиль формата : Base Media / Version 2
Идентификатор кодека : mp42
Размер файла : 93,1 Мбайт
Продолжительность : 3 м. 42 с.
Режим общего битрейта : Переменный
Общий поток : 3509 Кбит/сек
Дата кодирования : UTC 2009-11-06 01:26:25
Дата пометки : UTC 2009-11-06 01:26:25
gsst : 0
gstd : 222980
gssd : B4A7DD121MH1362070642365844
gshh : r1---sn-5hn7su7l.c.youtube.com

Видео
Идентификатор : 2
Формат : AVC
Формат/Информация : Advanced Video Codec
Профиль формата : High@L4.0
Параметр CABAC формата : Да
Параметр ReFrames формата : 3 кадра
Идентификатор кодека : avc1
Идентификатор кодека/Информация : Advanced Video Coding
Продолжительность : 3 м. 42 с.
Битрейт : 3385 Кбит/сек
Максимальный битрейт : 5677 Кбит/сек
Ширина : 1920 пикселей
Высота : 1080 пикселей
Соотношение сторон : 16:9
Режим частоты кадров : Постоянный
Частота кадров : 25,000 кадров/сек
Цветовое пространство : YUV
Субдискретизация насыщенности : 4:2:0
Битовая глубина : 8 бит
Тип развёртки : Прогрессивная
Бит/(Пиксели*Кадры) : 0.065
Размер потока : 89,8 Мбайт (96%)
Заголовок : (C) 2007 Google Inc. v08.13.2007.
Дата кодирования : UTC 2009-11-06 01:26:25
Дата пометки : UTC 2009-11-06 01:26:27

Аудио
Идентификатор : 1
Формат : AAC
Формат/Информация : Advanced Audio Codec
Профиль формата : LC
Идентификатор кодека : 40
Продолжительность : 3 м. 42 с.
Вид битрейта : Переменный
Битрейт : 122 Кбит/сек
Максимальный битрейт : 167 Кбит/сек
Каналы : 2 канала
Расположение каналов : Front: L R
Частота : 44,1 КГц
Метод сжатия : С потерями
Размер потока : 3,24 Мбайт (3%)
Заголовок : (C) 2007 Google Inc. v08.13.2007.
Дата кодирования : UTC 2009-11-06 01:26:25
Дата пометки : UTC 2009-11-06 01:26:27

Общее
Полное имя : E:Music Video (Vocal Trance)-5(2008-2013)Dan & Sam feat. Maxx Hennard - Walls (Original Mix) [OFFICIAL MUSIC VIDEO].mp4
Формат : MPEG-4
Профиль формата : Base Media / Version 2
Идентификатор кодека : mp42
Размер файла : 102 Мбайт
Продолжительность : 4 м. 1 с.
Режим общего битрейта : Переменный
Общий поток : 3554 Кбит/сек
Дата кодирования : UTC 2013-02-18 14:10:04
Дата пометки : UTC 2013-02-18 14:10:04
gsst : 0
gstd : 241255
gssd : BADC23A68HH1361547969448212
gshh : r8---sn-n8v7ln7y.c.youtube.com

Видео
Идентификатор : 1
Формат : AVC
Формат/Информация : Advanced Video Codec
Профиль формата : High@L4.0
Параметр CABAC формата : Да
Параметр ReFrames формата : 1 кадр
Параметр GOP формата : M=1, N=48
Идентификатор кодека : avc1
Идентификатор кодека/Информация : Advanced Video Coding
Продолжительность : 4 м. 1 с.
Битрейт : 3360 Кбит/сек
Максимальный битрейт : 10,2 Мбит/сек
Ширина : 1920 пикселей
Высота : 1080 пикселей
Соотношение сторон : 16:9
Режим частоты кадров : Постоянный
Частота кадров : 23,976 кадра/сек
Цветовое пространство : YUV
Субдискретизация насыщенности : 4:2:0
Битовая глубина : 8 бит
Тип развёртки : Прогрессивная
Бит/(Пиксели*Кадры) : 0.068
Размер потока : 96,6 Мбайт (95%)
Дата пометки : UTC 2013-02-18 14:10:08

Аудио
Идентификатор : 2
Формат : AAC
Формат/Информация : Advanced Audio Codec
Профиль формата : LC
Идентификатор кодека : 40
Продолжительность : 4 м. 1 с.
Вид битрейта : Переменный
Битрейт : 192 Кбит/сек
Максимальный битрейт : 202 Кбит/сек
Каналы : 2 канала
Расположение каналов : Front: L R
Частота : 44,1 КГц
Метод сжатия : С потерями
Размер потока : 5,52 Мбайт (5%)
Заголовок : IsoMedia File Produced by Google, 5-11-2011
Дата кодирования : UTC 2013-02-18 14:10:07
Дата пометки : UTC 2013-02-18 14:10:08

Общее
Полное имя : E:Music Video (Vocal Trance)-5(2008-2013)Dash Berlin ft. Chris Madin - Fool For Life (Official Music Video).mp4
Формат : MPEG-4
Профиль формата : Base Media / Version 2
Идентификатор кодека : mp42
Размер файла : 135 Мбайт
Продолжительность : 3 м. 46 с.
Режим общего битрейта : Переменный
Общий поток : 5015 Кбит/сек
Дата кодирования : UTC 2013-02-24 16:01:48
Дата пометки : UTC 2013-02-24 16:01:48
gsst : 0
gstd : 226346
gssd : BD075E005HH1361810002414765
gshh : r2---sn-2apm-f5fs.c.youtube.com

Видео
Идентификатор : 1
Формат : AVC
Формат/Информация : Advanced Video Codec
Профиль формата : High@L4.0
Параметр CABAC формата : Да
Параметр ReFrames формата : 1 кадр
Параметр GOP формата : M=1, N=48
Идентификатор кодека : avc1
Идентификатор кодека/Информация : Advanced Video Coding
Продолжительность : 3 м. 46 с.
Битрейт : 4820 Кбит/сек
Максимальный битрейт : 12,3 Мбит/сек
Ширина : 1920 пикселей
Высота : 1080 пикселей
Соотношение сторон : 16:9
Режим частоты кадров : Постоянный
Частота кадров : 24,000 кадра/сек
Цветовое пространство : YUV
Субдискретизация насыщенности : 4:2:0
Битовая глубина : 8 бит
Тип развёртки : Прогрессивная
Бит/(Пиксели*Кадры) : 0.097
Размер потока : 130 Мбайт (96%)
Дата пометки : UTC 2013-02-24 16:02:06

Аудио
Идентификатор : 2
Формат : AAC
Формат/Информация : Advanced Audio Codec
Профиль формата : LC
Идентификатор кодека : 40
Продолжительность : 3 м. 46 с.
Вид битрейта : Переменный
Битрейт : 192 Кбит/сек
Максимальный битрейт : 203 Кбит/сек
Каналы : 2 канала
Расположение каналов : Front: L R
Частота : 44,1 КГц
Метод сжатия : С потерями
Размер потока : 5,18 Мбайт (4%)
Заголовок : IsoMedia File Produced by Google, 5-11-2011
Дата кодирования : UTC 2013-02-24 16:02:02
Дата пометки : UTC 2013-02-24 16:02:06

Общее
Полное имя : E:Music Video (Vocal Trance)-5(2008-2013)EDX & Tamra Keenan - Out Of The Rain (Official Video HD).mp4
Формат : MPEG-4
Профиль формата : Base Media / Version 2
Идентификатор кодека : mp42
Размер файла : 151 Мбайт
Продолжительность : 3 м. 33 с.
Режим общего битрейта : Переменный
Общий поток : 5939 Кбит/сек
Дата кодирования : UTC 2010-11-14 11:57:49
Дата пометки : UTC 2010-11-14 11:57:49
gsst : 0
gstd : 213600
gssd : B4A7DA361MH1362055486687308
gshh : r1---sn-5go7ln7z.c.youtube.com

Видео
Идентификатор : 1
Формат : AVC
Формат/Информация : Advanced Video Codec
Профиль формата : High@L4.0
Параметр CABAC формата : Да
Параметр ReFrames формата : 1 кадр
Параметр GOP формата : M=1, N=25
Идентификатор кодека : avc1
Идентификатор кодека/Информация : Advanced Video Coding
Продолжительность : 3 м. 33 с.
Битрейт : 5807 Кбит/сек
Максимальный битрейт : 17,1 Мбит/сек
Ширина : 1920 пикселей
Высота : 1080 пикселей
Соотношение сторон : 16:9
Режим частоты кадров : Постоянный
Частота кадров : 25,000 кадров/сек
Цветовое пространство : YUV
Субдискретизация насыщенности : 4:2:0
Битовая глубина : 8 бит
Тип развёртки : Прогрессивная
Бит/(Пиксели*Кадры) : 0.112
Размер потока : 148 Мбайт (98%)
Дата пометки : UTC 2010-11-14 11:57:53

Аудио
Идентификатор : 2
Формат : AAC
Формат/Информация : Advanced Audio Codec
Профиль формата : LC
Идентификатор кодека : 40
Продолжительность : 3 м. 33 с.
Вид битрейта : Переменный
Битрейт : 128 Кбит/сек
Максимальный битрейт : 150 Кбит/сек
Каналы : 2 канала
Расположение каналов : Front: L R
Частота : 44,1 КГц
Метод сжатия : С потерями
Размер потока : 3,26 Мбайт (2%)
Заголовок : (C) 2007 Google Inc. v08.13.2007.
Дата кодирования : UTC 2010-11-14 11:57:51
Дата пометки : UTC 2010-11-14 11:57:53

Общее
Полное имя : E:Music Video (Vocal Trance)-5(2008-2013)Emotive Tunes feat Selecte - I Wanna Be With You (official video).mp4
Формат : MPEG-4
Профиль формата : Base Media / Version 2
Идентификатор кодека : mp42
Размер файла : 112 Мбайт
Продолжительность : 3 м. 11 с.
Режим общего битрейта : Переменный
Общий поток : 4934 Кбит/сек
Дата кодирования : UTC 2011-08-02 11:12:15
Дата пометки : UTC 2011-08-02 11:12:15
gsst : 0
gstd : 191166
gssd : B4A7DD1E2MM1362054435115510
gshh : r2---sn-5hn7su7r.c.youtube.com

Видео
Идентификатор : 1
Формат : AVC
Формат/Информация : Advanced Video Codec
Профиль формата : High@L4.0
Параметр CABAC формата : Да
Параметр ReFrames формата : 1 кадр
Идентификатор кодека : avc1
Идентификатор кодека/Информация : Advanced Video Coding
Продолжительность : 3 м. 11 с.
Битрейт : 4779 Кбит/сек
Максимальный битрейт : 7707 Кбит/сек
Ширина : 1920 пикселей
Высота : 1080 пикселей
Соотношение сторон : 16:9
Режим частоты кадров : Переменный
Частота кадров : 24,000 кадра/сек
Минимальная частота кадров : 23,810 кадра/сек
Максимальная частота кадров : 24,390 кадра/сек
Цветовое пространство : YUV
Субдискретизация насыщенности : 4:2:0
Битовая глубина : 8 бит
Тип развёртки : Прогрессивная
Бит/(Пиксели*Кадры) : 0.096
Размер потока : 109 Мбайт (97%)
Дата пометки : UTC 2011-08-02 11:12:16

Аудио
Идентификатор : 2
Формат : AAC
Формат/Информация : Advanced Audio Codec
Профиль формата : LC
Идентификатор кодека : 40
Продолжительность : 3 м. 11 с.
Вид битрейта : Переменный
Битрейт : 149 Кбит/сек
Максимальный битрейт : 240 Кбит/сек
Каналы : 2 канала
Расположение каналов : Front: L R
Частота : 44,1 КГц
Метод сжатия : С потерями
Размер потока : 3,39 Мбайт (3%)
Заголовок : IsoMedia File Produced by Google, 5-11-2011
Дата кодирования : UTC 2011-08-02 11:12:15
Дата пометки : UTC 2011-08-02 11:12:16

Общее
Полное имя : E:Music Video (Vocal Trance)-5(2008-2013)Headstrong feat. Stine Grove - Love Until It Hurts (Aurosonic Progressive Mix) [Music Video] [HD].mp4
Формат : MPEG-4
Профиль формата : Base Media / Version 2
Идентификатор кодека : mp42
Размер файла : 200 Мбайт
Продолжительность : 7 м. 45 с.
Режим общего битрейта : Переменный
Общий поток : 3603 Кбит/сек
Дата кодирования : UTC 2012-07-08 22:41:46
Дата пометки : UTC 2012-07-08 22:41:46
gsst : 0
gstd : 465211
gssd : BADC23A66HH1362030982326706
gshh : r6---sn-n8v7ln7y.c.youtube.com

Видео
Идентификатор : 1
Формат : AVC
Формат/Информация : Advanced Video Codec
Профиль формата : High@L4.0
Параметр CABAC формата : Да
Параметр ReFrames формата : 1 кадр
Идентификатор кодека : avc1
Идентификатор кодека/Информация : Advanced Video Coding
Продолжительность : 7 м. 45 с.
Битрейт : 3448 Кбит/сек
Максимальный битрейт : 9159 Кбит/сек
Ширина : 1920 пикселей
Высота : 1080 пикселей
Соотношение сторон : 16:9
Режим частоты кадров : Постоянный
Частота кадров : 29,970 кадров/сек
Цветовое пространство : YUV
Субдискретизация насыщенности : 4:2:0
Битовая глубина : 8 бит
Тип развёртки : Прогрессивная
Бит/(Пиксели*Кадры) : 0.055
Размер потока : 191 Мбайт (96%)
Дата пометки : UTC 2012-07-08 22:41:46

Аудио
Идентификатор : 2
Формат : AAC
Формат/Информация : Advanced Audio Codec
Профиль формата : LC
Идентификатор кодека : 40
Продолжительность : 7 м. 45 с.
Вид битрейта : Переменный
Битрейт : 152 Кбит/сек
Максимальный битрейт : 175 Кбит/сек
Каналы : 2 канала
Расположение каналов : Front: L R
Частота : 44,1 КГц
Метод сжатия : С потерями
Размер потока : 8,43 Мбайт (4%)
Заголовок : IsoMedia File Produced by Google, 5-11-2011
Дата кодирования : UTC 2012-07-08 22:41:46
Дата пометки : UTC 2012-07-08 22:41:46

Общее
Полное имя : E:Music Video (Vocal Trance)-5(2008-2013)Jonas Steur ft. Jennifer Hershman - Feel Your Lows So Heavy (Official Music Video).mp4
Формат : MPEG-4
Профиль формата : Base Media / Version 2
Идентификатор кодека : mp42
Размер файла : 205 Мбайт
Продолжительность : 4 м. 51 с.
Режим общего битрейта : Переменный
Общий поток : 5915 Кбит/сек
Дата кодирования : UTC 2012-06-24 19:17:49
Дата пометки : UTC 2012-06-24 19:17:49
gsst : 0
gstd : 291200
gssd : B4A7DD1C4MH1361985616187478
gshh : r4---sn-5hn7su7k.c.youtube.com

Видео
Идентификатор : 1
Формат : AVC
Формат/Информация : Advanced Video Codec
Профиль формата : High@L4.0
Параметр CABAC формата : Да
Параметр ReFrames формата : 1 кадр
Идентификатор кодека : avc1
Идентификатор кодека/Информация : Advanced Video Coding
Продолжительность : 4 м. 51 с.
Битрейт : 5761 Кбит/сек
Максимальный битрейт : 12,6 Мбит/сек
Ширина : 1920 пикселей
Высота : 1080 пикселей
Соотношение сторон : 16:9
Режим частоты кадров : Постоянный
Частота кадров : 23,976 кадра/сек
Цветовое пространство : YUV
Субдискретизация насыщенности : 4:2:0
Битовая глубина : 8 бит
Тип развёртки : Прогрессивная
Бит/(Пиксели*Кадры) : 0.116
Размер потока : 200 Мбайт (97%)
Дата пометки : UTC 2012-06-24 19:17:49

Аудио
Идентификатор : 2
Формат : AAC
Формат/Информация : Advanced Audio Codec
Профиль формата : LC
Идентификатор кодека : 40
Продолжительность : 4 м. 51 с.
Вид битрейта : Переменный
Битрейт : 152 Кбит/сек
Максимальный битрейт : 192 Кбит/сек
Каналы : 2 канала
Расположение каналов : Front: L R
Частота : 44,1 КГц
Метод сжатия : С потерями
Размер потока : 5,28 Мбайт (3%)
Заголовок : IsoMedia File Produced by Google, 5-11-2011
Дата кодирования : UTC 2012-06-24 19:17:49
Дата пометки : UTC 2012-06-24 19:17:49

Общее
Полное имя : E:Music Video (Vocal Trance)-5(2008-2013)Kyau & Albert - This Love [Official Video].mp4
Формат : MPEG-4
Профиль формата : Base Media / Version 2
Идентификатор кодека : mp42
Размер файла : 109 Мбайт
Продолжительность : 3 м. 32 с.
Режим общего битрейта : Переменный
Общий поток : 4308 Кбит/сек
Дата кодирования : UTC 2012-02-28 17:29:00
Дата пометки : UTC 2012-02-28 17:29:00
gsst : 0
gstd : 212950
gssd : B4A7DD1A3MH1362053808128287
gshh : r3---sn-5hn7su7d.c.youtube.com

Видео
Идентификатор : 1
Формат : AVC
Формат/Информация : Advanced Video Codec
Профиль формата : High@L4.0
Параметр CABAC формата : Да
Параметр ReFrames формата : 1 кадр
Параметр GOP формата : M=1, N=25
Идентификатор кодека : avc1
Идентификатор кодека/Информация : Advanced Video Coding
Продолжительность : 3 м. 32 с.
Битрейт : 4167 Кбит/сек
Максимальный битрейт : 14,4 Мбит/сек
Ширина : 1920 пикселей
Высота : 1080 пикселей
Соотношение сторон : 16:9
Режим частоты кадров : Постоянный
Частота кадров : 25,000 кадров/сек
Цветовое пространство : YUV
Субдискретизация насыщенности : 4:2:0
Битовая глубина : 8 бит
Тип развёртки : Прогрессивная
Бит/(Пиксели*Кадры) : 0.080
Размер потока : 106 Мбайт (97%)
Дата пометки : UTC 2012-02-28 17:29:01

Аудио
Идентификатор : 2
Формат : AAC
Формат/Информация : Advanced Audio Codec
Профиль формата : LC
Идентификатор кодека : 40
Продолжительность : 3 м. 32 с.
Вид битрейта : Переменный
Битрейт : 138 Кбит/сек
Максимальный битрейт : 174 Кбит/сек
Каналы : 2 канала
Расположение каналов : Front: L R
Частота : 44,1 КГц
Метод сжатия : С потерями
Размер потока : 3,51 Мбайт (3%)
Заголовок : IsoMedia File Produced by Google, 5-11-2011
Дата кодирования : UTC 2012-02-28 17:29:01
Дата пометки : UTC 2012-02-28 17:29:01

Общее
Полное имя : E:Music Video (Vocal Trance)-5(2008-2013)Leonid Rudenko ft. Daniella - Summerfish (OFFICIAL HD MUSICVIDEO).mp4
Формат : MPEG-4
Профиль формата : Base Media / Version 2
Идентификатор кодека : mp42
Размер файла : 50,7 Мбайт
Продолжительность : 3 м. 20 с.
Режим общего битрейта : Переменный
Общий поток : 2127 Кбит/сек
Дата кодирования : UTC 2009-06-29 21:09:38
Дата пометки : UTC 2009-06-29 21:09:38
gsst : 0
gstd : 200433
gssd : B5D58A205MM1362070920515056
gshh : r2---sn-wnjfxcg5-3w5e.c.youtube.com

Видео
Идентификатор : 2
Формат : AVC
Формат/Информация : Advanced Video Codec
Профиль формата : High@L3.1
Параметр CABAC формата : Да
Параметр ReFrames формата : 3 кадра
Идентификатор кодека : avc1
Идентификатор кодека/Информация : Advanced Video Coding
Продолжительность : 3 м. 20 с.
Битрейт : 1998 Кбит/сек
Максимальный битрейт : 3326 Кбит/сек
Ширина : 1280 пикселей
Высота : 720 пикселей
Соотношение сторон : 16:9
Режим частоты кадров : Постоянный
Частота кадров : 25,000 кадров/сек
Цветовое пространство : YUV
Субдискретизация насыщенности : 4:2:0
Битовая глубина : 8 бит
Тип развёртки : Прогрессивная
Бит/(Пиксели*Кадры) : 0.087
Размер потока : 47,6 Мбайт (94%)
Заголовок : (C) 2007 Google Inc. v08.13.2007.
Дата кодирования : UTC 2009-06-29 21:09:38
Дата пометки : UTC 2009-06-29 21:09:39

Аудио
Идентификатор : 1
Формат : AAC
Формат/Информация : Advanced Audio Codec
Профиль формата : LC
Идентификатор кодека : 40
Продолжительность : 3 м. 20 с.
Вид битрейта : Переменный
Битрейт : 126 Кбит/сек
Максимальный битрейт : 276 Кбит/сек
Каналы : 2 канала
Расположение каналов : Front: L R
Частота : 44,1 КГц
Метод сжатия : С потерями
Размер потока : 3,00 Мбайт (6%)
Заголовок : (C) 2007 Google Inc. v08.13.2007.
Дата кодирования : UTC 2009-06-29 21:09:38
Дата пометки : UTC 2009-06-29 21:09:39

Общее
Полное имя : E:Music Video (Vocal Trance)-5(2008-2013)Resist Temptation ft. HeawenwarD - Questions.mp4
Формат : MPEG-4
Профиль формата : Base Media / Version 2
Идентификатор кодека : mp42
Размер файла : 130 Мбайт
Продолжительность : 4 м. 34 с.
Режим общего битрейта : Переменный
Общий поток : 3954 Кбит/сек
Дата кодирования : UTC 2012-04-22 12:06:27
Дата пометки : UTC 2012-04-22 12:06:27
gsst : 0
gstd : 274806
gssd : B5D58A209MH1362144476559013
gshh : r6---sn-wnjfxcg5-3w5e.c.youtube.com

Видео
Идентификатор : 1
Формат : AVC
Формат/Информация : Advanced Video Codec
Профиль формата : High@L4.0
Параметр CABAC формата : Да
Параметр ReFrames формата : 1 кадр
Параметр GOP формата : M=1, N=30
Идентификатор кодека : avc1
Идентификатор кодека/Информация : Advanced Video Coding
Продолжительность : 4 м. 34 с.
Битрейт : 3800 Кбит/сек
Максимальный битрейт : 7790 Кбит/сек
Ширина : 1920 пикселей
Высота : 1080 пикселей
Соотношение сторон : 16:9
Режим частоты кадров : Постоянный
Частота кадров : 30,000 кадров/сек
Цветовое пространство : YUV
Субдискретизация насыщенности : 4:2:0
Битовая глубина : 8 бит
Тип развёртки : Прогрессивная
Бит/(Пиксели*Кадры) : 0.061
Размер потока : 124 Мбайт (96%)
Дата пометки : UTC 2012-04-22 12:06:28

Аудио
Идентификатор : 2
Формат : AAC
Формат/Информация : Advanced Audio Codec
Профиль формата : LC
Идентификатор кодека : 40
Продолжительность : 4 м. 34 с.
Вид битрейта : Переменный
Битрейт : 152 Кбит/сек
Максимальный битрейт : 165 Кбит/сек
Каналы : 2 канала
Расположение каналов : Front: L R
Частота : 44,1 КГц
Метод сжатия : С потерями
Размер потока : 4,97 Мбайт (4%)
Заголовок : IsoMedia File Produced by Google, 5-11-2011
Дата кодирования : UTC 2012-04-22 12:06:28
Дата пометки : UTC 2012-04-22 12:06:28

Общее
Полное имя : E:Music Video (Vocal Trance)-5(2008-2013)Resist Temptation ft. Lizzet - Still Alone (Official Music Video).mp4
Формат : MPEG-4
Профиль формата : Base Media / Version 2
Идентификатор кодека : mp42
Размер файла : 138 Мбайт
Продолжительность : 5 м. 12 с.
Режим общего битрейта : Переменный
Общий поток : 3700 Кбит/сек
Дата кодирования : UTC 2013-02-27 07:56:17
Дата пометки : UTC 2013-02-27 07:56:17
gsst : 0
gstd : 312795
gssd : BADC23AC8HH1362143947561860
gshh : r8---sn-n8v7lnel.c.youtube.com

Видео
Идентификатор : 1
Формат : AVC
Формат/Информация : Advanced Video Codec
Профиль формата : High@L4.0
Параметр CABAC формата : Да
Параметр ReFrames формата : 1 кадр
Параметр GOP формата : M=1, N=48
Идентификатор кодека : avc1
Идентификатор кодека/Информация : Advanced Video Coding
Продолжительность : 5 м. 12 с.
Битрейт : 3505 Кбит/сек
Максимальный битрейт : 11,4 Мбит/сек
Ширина : 1920 пикселей
Высота : 1080 пикселей
Соотношение сторон : 16:9
Режим частоты кадров : Постоянный
Частота кадров : 23,976 кадра/сек
Цветовое пространство : YUV
Субдискретизация насыщенности : 4:2:0
Битовая глубина : 8 бит
Тип развёртки : Прогрессивная
Бит/(Пиксели*Кадры) : 0.071
Размер потока : 131 Мбайт (95%)
Дата пометки : UTC 2013-02-27 07:56:28

Аудио
Идентификатор : 2
Формат : AAC
Формат/Информация : Advanced Audio Codec
Профиль формата : LC
Идентификатор кодека : 40
Продолжительность : 5 м. 12 с.
Вид битрейта : Переменный
Битрейт : 192 Кбит/сек
Максимальный битрейт : 201 Кбит/сек
Каналы : 2 канала
Расположение каналов : Front: L R
Частота : 44,1 КГц
Метод сжатия : С потерями
Размер потока : 7,16 Мбайт (5%)
Заголовок : IsoMedia File Produced by Google, 5-11-2011
Дата кодирования : UTC 2013-02-27 07:56:25
Дата пометки : UTC 2013-02-27 07:56:28

Общее
Полное имя : E:Music Video (Vocal Trance)-5(2008-2013)Selecta - Find you (official video).mp4
Формат : MPEG-4
Профиль формата : Base Media / Version 2
Идентификатор кодека : mp42
Размер файла : 201 Мбайт
Продолжительность : 4 м. 32 с.
Режим общего битрейта : Переменный
Общий поток : 6186 Кбит/сек
Дата кодирования : UTC 2011-09-05 06:11:45
Дата пометки : UTC 2011-09-05 06:11:45
gsst : 0
gstd : 272140
gssd : B4A7DDA46MH1362054512965435
gshh : r6---sn-4g57kues.c.youtube.com

Видео
Идентификатор : 1
Формат : AVC
Формат/Информация : Advanced Video Codec
Профиль формата : High@L4.0
Параметр CABAC формата : Да
Параметр ReFrames формата : 1 кадр
Идентификатор кодека : avc1
Идентификатор кодека/Информация : Advanced Video Coding
Продолжительность : 4 м. 32 с.
Битрейт : 6028 Кбит/сек
Максимальный битрейт : 17,0 Мбит/сек
Ширина : 1920 пикселей
Высота : 1080 пикселей
Соотношение сторон : 16:9
Режим частоты кадров : Переменный
Частота кадров : 29,970 кадров/сек
Минимальная частота кадров : 29,412 кадров/сек
Максимальная частота кадров : 30,303 кадров/сек
Цветовое пространство : YUV
Субдискретизация насыщенности : 4:2:0
Битовая глубина : 8 бит
Тип развёртки : Прогрессивная
Бит/(Пиксели*Кадры) : 0.097
Размер потока : 196 Мбайт (97%)
Дата пометки : UTC 2011-09-05 06:11:46

Аудио
Идентификатор : 2
Формат : AAC
Формат/Информация : Advanced Audio Codec
Профиль формата : LC
Идентификатор кодека : 40
Продолжительность : 4 м. 32 с.
Вид битрейта : Переменный
Битрейт : 152 Кбит/сек
Максимальный битрейт : 236 Кбит/сек
Каналы : 2 канала
Расположение каналов : Front: L R
Частота : 44,1 КГц
Метод сжатия : С потерями
Размер потока : 4,92 Мбайт (2%)
Заголовок : IsoMedia File Produced by Google, 5-11-2011
Дата кодирования : UTC 2011-09-05 06:11:45
Дата пометки : UTC 2011-09-05 06:11:46

Общее
Полное имя : E:Music Video (Vocal Trance)-5(2008-2013)Sequence 11 feat. Aliciya Angel - Until We Meet Again (Official Video).mp4
Формат : MPEG-4
Профиль формата : Base Media / Version 2
Идентификатор кодека : mp42
Размер файла : 208 Мбайт
Продолжительность : 4 м. 45 с.
Режим общего битрейта : Переменный
Общий поток : 6120 Кбит/сек
Дата кодирования : UTC 2011-10-30 15:50:20
Дата пометки : UTC 2011-10-30 15:50:20
gsst : 0
gstd : 285451
gssd : B4A7DDA25MH1362030727480995
gshh : r5---sn-4g57kuel.c.youtube.com

Видео
Идентификатор : 1
Формат : AVC
Формат/Информация : Advanced Video Codec
Профиль формата : High@L4.0
Параметр CABAC формата : Да
Параметр ReFrames формата : 1 кадр
Параметр GOP формата : M=1, N=30
Идентификатор кодека : avc1
Идентификатор кодека/Информация : Advanced Video Coding
Продолжительность : 4 м. 45 с.
Битрейт : 5966 Кбит/сек
Максимальный битрейт : 15,6 Мбит/сек
Ширина : 1920 пикселей
Высота : 1080 пикселей
Соотношение сторон : 16:9
Режим частоты кадров : Переменный
Частота кадров : 29,970 кадров/сек
Минимальная частота кадров : 29,528 кадров/сек
Максимальная частота кадров : 30,426 кадров/сек
Цветовое пространство : YUV
Субдискретизация насыщенности : 4:2:0
Битовая глубина : 8 бит
Тип развёртки : Прогрессивная
Бит/(Пиксели*Кадры) : 0.096
Размер потока : 203 Мбайт (97%)
Дата пометки : UTC 2011-10-30 15:50:24

Аудио
Идентификатор : 2
Формат : AAC
Формат/Информация : Advanced Audio Codec
Профиль формата : LC
Идентификатор кодека : 40
Продолжительность : 4 м. 45 с.
Вид битрейта : Переменный
Битрейт : 151 Кбит/сек
Максимальный битрейт : 211 Кбит/сек
Каналы : 2 канала
Расположение каналов : Front: L R
Частота : 44,1 КГц
Метод сжатия : С потерями
Размер потока : 5,14 Мбайт (2%)
Заголовок : IsoMedia File Produced by Google, 5-11-2011
Дата кодирования : UTC 2011-10-30 15:50:24
Дата пометки : UTC 2011-10-30 15:50:24

Общее
Полное имя : E:Music Video (Vocal Trance)-5(2008-2013)Snatt & Vix Feat. Alexandra Badoi - Cold Shower [Official Video].mp4
Формат : MPEG-4
Профиль формата : Base Media / Version 2
Идентификатор кодека : mp42
Размер файла : 136 Мбайт
Продолжительность : 5 м. 15 с.
Режим общего битрейта : Переменный
Общий поток : 3609 Кбит/сек
Дата кодирования : UTC 2011-08-30 00:05:20
Дата пометки : UTC 2011-08-30 00:05:20
gsst : 0
gstd : 315040
gssd : B4A7DD846MH1361050222142420
gshh : r6---sn-cg07lues.c.youtube.com

Видео
Идентификатор : 1
Формат : AVC
Формат/Информация : Advanced Video Codec
Профиль формата : High@L4.0
Параметр CABAC формата : Да
Параметр ReFrames формата : 1 кадр
Идентификатор кодека : avc1
Идентификатор кодека/Информация : Advanced Video Coding
Продолжительность : 5 м. 15 с.
Битрейт : 3455 Кбит/сек
Максимальный битрейт : 13,6 Мбит/сек
Ширина : 1920 пикселей
Высота : 1080 пикселей
Соотношение сторон : 16:9
Режим частоты кадров : Постоянный
Частота кадров : 25,000 кадров/сек
Цветовое пространство : YUV
Субдискретизация насыщенности : 4:2:0
Битовая глубина : 8 бит
Тип развёртки : Прогрессивная
Бит/(Пиксели*Кадры) : 0.067
Размер потока : 130 Мбайт (96%)
Дата пометки : UTC 2011-08-30 00:05:21

Аудио
Идентификатор : 2
Формат : AAC
Формат/Информация : Advanced Audio Codec
Профиль формата : LC
Идентификатор кодека : 40
Продолжительность : 5 м. 15 с.
Вид битрейта : Переменный
Битрейт : 149 Кбит/сек
Максимальный битрейт : 199 Кбит/сек
Каналы : 2 канала
Расположение каналов : Front: L R
Частота : 44,1 КГц
Метод сжатия : С потерями
Размер потока : 5,60 Мбайт (4%)
Заголовок : IsoMedia File Produced by Google, 5-11-2011
Дата кодирования : UTC 2011-08-30 00:05:20
Дата пометки : UTC 2011-08-30 00:05:21

Общее
Полное имя : E:Music Video (Vocal Trance)-5(2008-2013)Tiddey feat. Keo - Lost (Single Mix) Unofficial Video.mp4
Формат : MPEG-4
Профиль формата : Base Media / Version 2
Идентификатор кодека : mp42
Размер файла : 118 Мбайт
Продолжительность : 3 м. 13 с.
Режим общего битрейта : Переменный
Общий поток : 5109 Кбит/сек
Дата кодирования : UTC 2012-08-05 21:33:07
Дата пометки : UTC 2012-08-05 21:33:07
gsst : 0
gstd : 193421
gssd : B4A7DD163MH1362159765626132
gshh : r3---sn-5hn7su7z.c.youtube.com

Видео
Идентификатор : 1
Формат : AVC
Формат/Информация : Advanced Video Codec
Профиль формата : High@L4.0
Параметр CABAC формата : Да
Параметр ReFrames формата : 1 кадр
Идентификатор кодека : avc1
Идентификатор кодека/Информация : Advanced Video Coding
Продолжительность : 3 м. 13 с.
Битрейт : 4915 Кбит/сек
Максимальный битрейт : 13,7 Мбит/сек
Ширина : 1920 пикселей
Высота : 1080 пикселей
Соотношение сторон : 16:9
Режим частоты кадров : Постоянный
Частота кадров : 29,970 кадров/сек
Цветовое пространство : YUV
Субдискретизация насыщенности : 4:2:0
Битовая глубина : 8 бит
Тип развёртки : Прогрессивная
Бит/(Пиксели*Кадры) : 0.079
Размер потока : 113 Мбайт (96%)
Дата пометки : UTC 2012-08-05 21:33:07

Аудио
Идентификатор : 2
Формат : AAC
Формат/Информация : Advanced Audio Codec
Профиль формата : LC
Идентификатор кодека : 40
Продолжительность : 3 м. 13 с.
Вид битрейта : Переменный
Битрейт : 192 Кбит/сек
Максимальный битрейт : 203 Кбит/сек
Каналы : 2 канала
Расположение каналов : Front: L R
Частота : 44,1 КГц
Метод сжатия : С потерями
Размер потока : 4,42 Мбайт (4%)
Заголовок : IsoMedia File Produced by Google, 5-11-2011
Дата кодирования : UTC 2012-08-05 21:33:07
Дата пометки : UTC 2012-08-05 21:33:07

Общее
Полное имя : E:Music Video (Vocal Trance)-5(2008-2013)Zirenz - Mountain Prayer (Original Mix).mp4
Формат : MPEG-4
Профиль формата : Base Media / Version 2
Идентификатор кодека : mp42
Размер файла : 111 Мбайт
Продолжительность : 8 м. 46 с.
Режим общего битрейта : Переменный
Общий поток : 1772 Кбит/сек
Дата кодирования : UTC 2013-01-08 14:54:43
Дата пометки : UTC 2013-01-08 14:54:43
gsst : 0
gstd : 526465
gssd : BADC23AE4MH1362031623593441
gshh : r4---sn-n8v7lnes.c.youtube.com

Видео
Идентификатор : 1
Формат : AVC
Формат/Информация : Advanced Video Codec
Профиль формата : High@L3.1
Параметр CABAC формата : Да
Параметр ReFrames формата : 1 кадр
Параметр GOP формата : M=1, N=60
Идентификатор кодека : avc1
Идентификатор кодека/Информация : Advanced Video Coding
Продолжительность : 8 м. 46 с.
Битрейт : 1577 Кбит/сек
Максимальный битрейт : 8275 Кбит/сек
Ширина : 1280 пикселей
Высота : 720 пикселей
Соотношение сторон : 16:9
Режим частоты кадров : Постоянный
Частота кадров : 29,970 кадров/сек
Цветовое пространство : YUV
Субдискретизация насыщенности : 4:2:0
Битовая глубина : 8 бит
Тип развёртки : Прогрессивная
Бит/(Пиксели*Кадры) : 0.057
Размер потока : 99,0 Мбайт (89%)
Дата пометки : UTC 2013-01-08 14:54:43

Аудио
Идентификатор : 2
Формат : AAC
Формат/Информация : Advanced Audio Codec
Профиль формата : LC
Идентификатор кодека : 40
Продолжительность : 8 м. 46 с.
Вид битрейта : Переменный
Битрейт : 192 Кбит/сек
Максимальный битрейт : 201 Кбит/сек
Каналы : 2 канала
Расположение каналов : Front: L R
Частота : 44,1 КГц
Метод сжатия : С потерями
Размер потока : 12,0 Мбайт (11%)
Заголовок : IsoMedia File Produced by Google, 5-11-2011
Дата кодирования : UTC 2013-01-08 14:54:43
Дата пометки : UTC 2013-01-08 14:54:43

Общее
Полное имя : E:Music Video (Vocal Trance)-5(2008-2013)Zirenz - Timeless (Matt Holliday Remix).mp4
Формат : MPEG-4
Профиль формата : Base Media / Version 2
Идентификатор кодека : mp42
Размер файла : 105 Мбайт
Продолжительность : 7 м. 51 с.
Режим общего битрейта : Переменный
Общий поток : 1863 Кбит/сек
Дата кодирования : UTC 2012-07-10 10:18:06
Дата пометки : UTC 2012-07-10 10:18:06
gsst : 0
gstd : 472083
gssd : B4A7DDA25MH1362031540136932
gshh : r5---sn-4g57kuel.c.youtube.com

Видео
Идентификатор : 1
Формат : AVC
Формат/Информация : Advanced Video Codec
Профиль формата : High@L3.1
Параметр CABAC формата : Да
Параметр ReFrames формата : 1 кадр
Идентификатор кодека : avc1
Идентификатор кодека/Информация : Advanced Video Coding
Продолжительность : 7 м. 51 с.
Битрейт : 1710 Кбит/сек
Максимальный битрейт : 5262 Кбит/сек
Ширина : 1280 пикселей
Высота : 720 пикселей
Соотношение сторон : 16:9
Режим частоты кадров : Постоянный
Частота кадров : 29,970 кадров/сек
Цветовое пространство : YUV
Субдискретизация насыщенности : 4:2:0
Битовая глубина : 8 бит
Тип развёртки : Прогрессивная
Бит/(Пиксели*Кадры) : 0.062
Размер потока : 96,2 Мбайт (92%)
Дата пометки : UTC 2012-07-10 10:18:07

Аудио
Идентификатор : 2
Формат : AAC
Формат/Информация : Advanced Audio Codec
Профиль формата : LC
Идентификатор кодека : 40
Продолжительность : 7 м. 51 с.
Вид битрейта : Переменный
Битрейт : 150 Кбит/сек
Максимальный битрейт : 240 Кбит/сек
Каналы : 2 канала
Расположение каналов : Front: L R
Частота : 44,1 КГц
Метод сжатия : С потерями
Размер потока : 8,44 Мбайт (8%)
Заголовок : IsoMedia File Produced by Google, 5-11-2011
Дата кодирования : UTC 2012-07-10 10:18:07
Дата пометки : UTC 2012-07-10 10:18:07


pb.wtf



Скачать Сборник видеоклипов через торрент https://pic1.kartinco.top/images/21/v156xeae7c.jpg Скачать, смотреть онлайн Сборник видеоклипов бесплантно в хорошем качестве Треклист:4 SТrings - Ready To Fall (Official Music Video)Aeron Aether, Mango, Civil Servants - Searching For A Memory (Official Music ... 9.9 10 14
Info! Золотая раздача, скачанное не засчитывается.
Торрент: Зарегистрирован [2013-03-16 20:10] · скачан: 428 раз
Статус: √ проверено
Размер: 2.98 GB
Как cкачать? Как скачать Сборник видеоклипов через торрент | UTorrent

28-11-2019 20:33  

Отключить всю рекламу на сайте

    Дорогой пользователь! Огромная просьба, поблагодарите релизера, оцените раздачу и оставьте свои комментарий, если Вы скачали Сборник видеоклипов через торрент бесплатно!
    Комментировать посты могут только пользователи прошедшие не сложную регистрацию
    Показать сообщения:    

    Сборник видеоклипов через торрент
    Скачать бесплатно Сборник видеоклипов
    Сборник видеоклипов скачать торрент
    Сборник видеоклипов смотреть онлайн
    Cкачать фильм Сборник видеоклипов бесплатно
    Сборник видеоклипов скачать торрент в хорошем качестве
    Сборник видеоклипов смотреть онлайн бесплатно в хорошем качестве


    Вы не можете начинать темы
    Вы не можете отвечать на сообщения
    Вы не можете редактировать свои сообщения
    Вы не можете удалять свои сообщения
    Вы не можете голосовать в опросах
    Вы не можете прикреплять файлы к сообщениям
    Вы можете скачивать файлы