2 сезон

iTunes

1 сезон

1

iTunes

iTunes

iTunes

1 сезон

RePack

30

ИГРА 18+

pack

ВАЖНО

!!Акция!!

Alien_RageХит недели

RePack

MK11
pack

Забери бонус

RePack

jed

!!Акция!!

Alien_Rage

RePack

fifa19

RePack

Assassins Creed: Odyssey

RePack

NEED FOR SPEED™ PAYBACK

4 сезон

9 сезон

Бесстыжие 9 сезон

Все сериалы

все сериалы на PB.wtf

RePack

FAR CRY 5
  

Любовь не делится на два / Серии: 1-4 из 4 (Кира Ангелина) [2013, мелодрама, DVD9] R5 pb.wtf

Любовь не делится на два через торрент pb.wtf

Размер: 7.13 GB | Добавлен: 7 лет 7 мес. назад | Торрент скачан:27 раз
Скачать  

16-03-2013 20:40 Любовь не делится на два Скачать торрент  


Любовь не делится на два
Страна: Россия
Студия: Про100 Фильм
Жанр: мелодрама
Год выпуска: 2013
Мировая премьера: 10 февраля 2013
Дата выхода DVD: 16 марта 2013
Продолжительность: 176 мин.
Перевод: Оригинал [Лицензия]
Cубтитры: нет
Оригинальная аудиодорожка: русский
Режиссер: Кира Ангелина
В ролях: Анна Пескова, Дмитрий Ефремов, Татьяна Лютаева, Михаил Мамаев, Александр Наумов, Екатерина Семёнова, Анна Шепелева, Дмитрий Ендальцев, Игорь Новоселов
Описание: В Москве в скромной хрущевке живут Яков, Соня и их сын Денис. Парню восемнадцать, а он все никак за ум не возьмется — бренчит целыми днями на гитаре да песни сочиняет. Соня преподает в школе русский язык и литературу, ведет театральный кружок, да еще и репетитором подрабатывает.
А в Самаре живет семья Глеба Дорохова. Глеб — сослуживец Якова и женат на сестре Сони — Раисе.
Наша история начинается с того, что Марина приезжает в Москву, а Денис — в Самару. Причин на то много. Марине надо поступать в университет, учиться. А Денису давно пора браться за ум — Соня надеется, что Глеб займет его делом. Все бы ничего, но, похоже, есть тайна, которая долгие годы связывает две семьи. И причины, толкнувшие родителей обменяться детьми, вовсе не те, что кажутся. Не сразу, но постепенно, зритель начинает понимать, что Соня и Глеб настоящие родители Марины и Дениса. Но как получилось так, что долгие восемнадцать лет Соня была разлучена с дочерью, а Глеб с сыном? Это предстоит узнать только в самом финале.

Бонусы: нет

Релиз группы:
Качество: DVD9 R5
Формат: DVD-Video
Видео кодек: MPEG2
Аудио кодек: AC3
Видео: PAL 16:9 (720x576(0.558)) MPEG Video, 25,000 кадр/сек, 5789 Кбит/сек
Аудио: Russian (Dolby AC3, 2 ch) 192 Кбит/сек, 48,0 КГц



Title: Lyubov.ne.delitsya.na.dva.2012.DVD9
Size: 7.13 Gb ( 7 472 740,00 KBytes ) - DVD-9
Enabled regions: 1, 2, 3, 4, 5, 6, 7, 8

VTS_01 :
Play Length: 00:00:25+{00:00:25}+{00:00:25}
Video: PAL 4:3 (720x576) VBR
Audio:
Russian (Dolby AC3, 6 ch)
English (Dolby AC3, 6 ch)
English (Dolby AC3, 6 ch)

VTS_02 :
Play Length: 00:43:40
Video: PAL 16:9 (720x576) VBR, Auto Pan&Scan, Auto Letterboxed
Audio:
Russian (Dolby AC3, 2 ch)

VTS_03 :
Play Length: 00:44:41
Video: PAL 16:9 (720x576) VBR, Auto Pan&Scan, Auto Letterboxed
Audio:
Russian (Dolby AC3, 2 ch)

VTS_04 :
Play Length: 00:44:56
Video: PAL 16:9 (720x576) VBR, Auto Pan&Scan, Auto Letterboxed
Audio:
Russian (Dolby AC3, 2 ch)

VTS_05 :
Play Length: 00:45:47
Video: PAL 16:9 (720x576) VBR, Auto Pan&Scan, Auto Letterboxed
Audio:
Russian (Dolby AC3, 2 ch)

* Menus Information *

VIDEO_TS Menu
Video:
PAL 4:3 (720x576) VBR
English Language Unit :
Title Menu

VTS_01 Menu
Video:
PAL 4:3 (720x576) VBR
Audio:
Not specified (Dolby AC3, 2 ch)
English Language Unit :
Root Menu
Chapter (PTT) Menu

VTS_02 Menu
Video:
PAL 4:3 (720x576) VBR
English Language Unit :
Root Menu
Chapter (PTT) Menu

VTS_03 Menu
Video:
PAL 4:3 (720x576) VBR
English Language Unit :
Root Menu
Chapter (PTT) Menu

VTS_04 Menu
Video:
PAL 4:3 (720x576) VBR
English Language Unit :
Root Menu
Chapter (PTT) Menu

VTS_05 Menu
Video:
PAL 4:3 (720x576) VBR
English Language Unit :
Root Menu
Chapter (PTT) Menu
Общее
Полное имя : J:Новинки 2013Lyubov.ne.delitsya.na.dva.2012.DVD9VIDEO_TSVTS_03_1.VOB
Формат : MPEG-PS
Размер файла : 1024 Мбайт
Продолжительность : 23 м.
Режим общего битрейта : Переменный
Общий поток : 6102 Кбит/сек

Видео
Идентификатор : 224 (0xE0)
Формат : MPEG Video
Версия формата : Version 2
Профиль формата : Main@Main
Параметр BVOP формата : Да
Параметр матрицы формата : Выборочная
Параметр GOP формата : Variable
Продолжительность : 23 м.
Вид битрейта : Переменный
Битрейт : 5789 Кбит/сек
Максимальный битрейт : 8000 Кбит/сек
Ширина : 720 пикселей
Высота : 576 пикселей
Соотношение сторон : 16:9
Частота кадров : 25,000 кадров/сек
Стандарт вещания : PAL
Цветовое пространство : YUV
Субдискретизация насыщенности : 4:2:0
Битовая глубина : 8 бит
Тип развёртки : Прогрессивная
Метод сжатия : С потерями
Бит/(Пиксели*Кадры) : 0.558
Размер потока : 971 Мбайт (95%)

Аудио
Идентификатор : 189 (0xBD)-128 (0x80)
Формат : AC-3
Формат/Информация : Audio Coding 3
Расширение режима : CM (complete main)
Параметр Endianness формата : Big
Режим смешивания : DVD-Video
Продолжительность : 23 м.
Вид битрейта : Постоянный
Битрейт : 192 Кбит/сек
Каналы : 2 канала
Расположение каналов : Front: L R
Частота : 48,0 КГц
Битовая глубина : 16 бит
Метод сжатия : С потерями
Размер потока : 32,2 Мбайт (3%)










pb.wtf



Скачать Любовь не делится на два через торрент http://s019.radikal.ru/i631/1303/ed/3edef5e2edbe.jpg Скачать фильм Любовь не делится на два через торрент бесплантно в хорошем качестве Описание: В Москве в скромной хрущевке живут Яков, Соня и их сын Денис. Парню восемнадцать, а он все никак за ум не возьмется — бренчит ... 10 10 2
Info! Золотая раздача, скачанное не засчитывается.
Торрент: Зарегистрирован [2013-03-16 20:40] · скачан: 27 раз
Статус: √ проверено
Размер: 7.13 GB
Как cкачать? Как скачать Любовь не делится на два через торрент | qTorrent

28-11-2019 20:33  

Отключить всю рекламу на сайте

16-03-2013 21:32 Любовь не делится на два Скачать торрент  

несомневаюс что фильм такойже тупой как и имя и фамилия режисера!pb.wtf



    Дорогой пользователь! Огромная просьба, поблагодарите релизера, оцените раздачу и оставьте свои комментарий, если Вы скачали Любовь не делится на два через торрент бесплатно! Внесите свою лепту в развитие PiratBit!
    Комментировать посты могут только пользователи прошедшие не сложную регистрацию
    Показать сообщения:    

    Любовь не делится на два через торрент
    Скачать бесплатно Любовь не делится на два
    Любовь не делится на два скачать торрент
    Любовь не делится на два смотреть онлайн
    Cкачать фильм Любовь не делится на два бесплатно
    Любовь не делится на два скачать торрент в хорошем качестве
    Любовь не делится на два смотреть онлайн бесплатно в хорошем качестве


    Вы не можете начинать темы
    Вы не можете отвечать на сообщения
    Вы не можете редактировать свои сообщения
    Вы не можете удалять свои сообщения
    Вы не можете голосовать в опросах
    Вы не можете прикреплять файлы к сообщениям
    Вы можете скачивать файлы