2 сезон

iTunes

MVO

1

2 сезон

iTunes

iTunes

1 сезон

RePack

30

Ultimate

ВАЖНО

ИГРА 18+

pack

RePack

MK11
pack

Легкие деньги

RePack

jed

RePack

fifa19

RePack

RDR2

RePack

NEED FOR SPEED™ PAYBACK

4 сезон

9 сезон

Бесстыжие 9 сезон

Все сериалы

все сериалы на PB.wtf

RePack

FAR CRY 5

Anonymous, добрый вечер, мы не успеваем собрать деньги на оплату серверов за декабрь и январь, помогите нам пожалуйста в это трудное время. В качестве благодарности мы отключим Вам всю рекламу на сайте (укажите свой ник в строку Ваше имя)!

×
  
Magnet ссылка

Мул / The Mule (Габриела Тальявини) [2012 г., триллер, HDRip, MVO, лицензия] pb.wtf

Мул через торрент pb.wtf

Размер: 1.37 GB | Добавлен: 7 лет 10 мес. назад | Торрент скачан:722 раза
Скачать  

18-03-2013 16:30 Мул Скачать торрент  

Мул / The Mule
Год выпуска: 2012
Страна: США
Жанр: триллер,
Продолжительность: 01:36:20
Перевод: Профессиональный многоголосый, Лицензия
Тип релиза: Лицензия

Режиссер: Габриела Тальявини
Продюссер: Лукас Джарач, Джейсон Прайс, Чак Биндер
Сценарий: Дон Фибигер, Эми Колквист

Мировой рейтинг IMDB 4.50 (346)


В ролях: Шэрон Стоун, Билли Зейн, Роземберг Сальгадо, Маноло Кардона, Мигель Родарт, Джованна Закариас, Ольга Сегура, Гилмер Беджарано, Виктор Медина, Уолтер Платц,

Описание: Американская женщина репортер в поисках своего пропавшего брата, на фоне насилия и человеческой контрабанды на границе США с Мексикой

Качество: HDRip
Формат: AVI
Видео кодек: XviD
Аудио кодек: AC3
Видео: 720x304 (2.37:1), 23.976 fps, XviD MPEG-4 ~1642 kbps avg, 0.31 bit/pixel
Аудио#1: 48 kHz, AC3 Dolby Digital, 3/2 (L,C,R,l,r) + LFE ch, ~384 kbps

General
Complete name : F:ГОТОВЫЕ ЗАГРУЗКИMul.2013.P.HDRip.1400Mb.avi
Format : AVI
Format/Info : Audio Video Interleave
File size : 1.37 GiB
Duration : 1h 36mn
Overall bit rate : 2 036 Kbps
Writing application : VirtualDubMod 1.5.10.2 (build 2542/release)
Writing library : VirtualDubMod build 2542/release

Video
ID : 0
Format : MPEG-4 Visual
Format profile : Advanced Simple@L5
Format settings, BVOP : 2
Format settings, QPel : No
Format settings, GMC : No warppoints
Format settings, Matrix : Default (MPEG)
Muxing mode : Packed bitstream
Codec ID : XVID
Codec ID/Hint : XviD
Duration : 1h 36mn
Bit rate : 1 643 Kbps
Width : 720 pixels
Height : 304 pixels
Display aspect ratio : 2.35:1
Frame rate : 23.976 fps
Color space : YUV
Chroma subsampling : 4:2:0
Bit depth : 8 bits
Scan type : Progressive
Compression mode : Lossy
Bits/(Pixel*Frame) : 0.313
Stream size : 1.11 GiB (81%)
Writing library : XviD 1.2.1 (UTC 2008-12-04)

Audio
ID : 1
Format : AC-3
Format/Info : Audio Coding 3
Mode extension : CM (complete main)
Format settings, Endianness : Big
Codec ID : 2000
Duration : 1h 36mn
Bit rate mode : Constant
Bit rate : 384 Kbps
Channel(s) : 6 channels
Channel positions : Front: L C R, Side: L R, LFE
Sampling rate : 48.0 KHz
Bit depth : 16 bits
Compression mode : Lossy
Delay relative to video : 530ms
Stream size : 265 MiB (19%)
Alignment : Split accross interleaves
Interleave, duration : 42 ms (1.00 video frame)
Interleave, preload duration : 500 ms


Мул скачать торрент


pb.wtf



Скачать Мул через торрент http://pic.kartinco.top/images/2/9a12818sht.jpg Скачать фильм Мул через торрент бесплантно в хорошем качестве Описание: Американская женщина репортер в поисках своего пропавшего брата, на фоне насилия и человеческой контрабанды на границе США с ... 8.3 10 17
Info! Золотая раздача, скачанное не засчитывается.
Торрент: Зарегистрирован [2013-03-18 16:34] · скачан: 722 раз
Статус: √ проверено
Размер: 1.37 GB
Как cкачать? Как скачать Мул через торрент | UTorrent

% Раздел Тема Автор DL S | L
T Фильмы [HD 720p, 1080p] (Звук Cam, VO, DVO) [ 8.45 GB ] Мул / The Mule [2014 Австралия BDRip 1080p Любительский [den904 DeadSno] Ворон Скачать
1 | 0
Фильмы 2014 (Звук TS, Cam, VO, DVO) [ 1.46 GB ] Мул / The Mule [2014 Австралия HDRip Любительский [den904 DeadSno] GEKADOL Скачать
1 | 0
T Фильмы [HD 720p, 1080p] (Звук Cam, VO, DVO) [ 4.7 GB ] Мул / The Mule [2014 Австралия BDRip 720p Любительский [den904 DeadSno] Ворон Скачать
1 | 0
Фильмы (DVD фильмы) [ 5.44 GB ] Мул / The Mule [2012 DVD9] R5 voovaz Скачать
1 | 0
Фильмы [HD 720p, 1080p] (Хороший звук DUB, MVO) [ 3.9 GB ] Мул / The Mule [2012 BDRip 720p MVO лицензия] Sудья Скачать
1 | 0

28-11-2019 20:33  

Отключить всю рекламу на сайте

18-03-2013 17:41 Мул Скачать торрент  

Шерон была когда-то очень даже ничего. Качну.pb.wtf



20-03-2013 21:47 Мул Скачать торрент  

Раздающему спасибо.А фильм полный отстой.Не тратьте время.pb.wtf



25-03-2013 15:13 Мул Скачать торрент  

ШЛАК ХЛАМ ОТСТОЙpb.wtf



01-04-2013 17:39 Мул Скачать торрент  

Американская дешёвая пропаганда на тему как плохо живётся мексикосам и они им помогают- снимают для них фильмы....pb.wtf



01-04-2013 17:41 Мул Скачать торрент  

Не пугайтесь, в главой роли действительно Шэрон Стоун!pb.wtf



09-04-2013 16:41 Мул Скачать торрент  

полная лажаpb.wtf



    Дорогой пользователь! Огромная просьба, поблагодарите релизера, оцените раздачу и оставьте свои комментарий, если Вы скачали Мул через торрент бесплатно! Внесите свою лепту в развитие PiratBit!
    Комментировать посты могут только пользователи прошедшие не сложную регистрацию
    Показать сообщения:    

    Мул через торрент
    Скачать бесплатно Мул
    Мул скачать торрент
    Мул смотреть онлайн
    Cкачать фильм Мул бесплатно
    Мул скачать торрент в хорошем качестве
    Мул смотреть онлайн бесплатно в хорошем качестве


    Вы не можете начинать темы
    Вы не можете отвечать на сообщения
    Вы не можете редактировать свои сообщения
    Вы не можете удалять свои сообщения
    Вы не можете голосовать в опросах
    Вы не можете прикреплять файлы к сообщениям
    Вы можете скачивать файлы