2 сезон

iTunes

1 сезон

1

iTunes

iTunes

iTunes

1 сезон

RePack

30

ИГРА 18+

pack

ВАЖНО

!!Акция!!

Alien_RageХит недели

RePack

MK11
pack

Забери бонус

RePack

jed

!!Акция!!

Alien_Rage

RePack

fifa19

RePack

Assassins Creed: Odyssey

RePack

NEED FOR SPEED™ PAYBACK

4 сезон

9 сезон

Бесстыжие 9 сезон

Все сериалы

все сериалы на PB.wtf

RePack

FAR CRY 5
  

Мул / The Mule (Габриела Тальявини) [2012 г., триллер, BDRip 720p, MVO, лицензия] pb.wtf

Мул через торрент pb.wtf

Размер: 3.9 GB | Добавлен: 7 лет 7 мес. назад | Торрент скачан:126 раз
Скачать  

18-03-2013 17:50 Мул Скачать торрент  

Мул / The Mule
Год выпуска: 2012
Страна: США
Жанр: триллер,
Продолжительность: 01:36:10
Перевод: Профессиональный многоголосый, Лицензия
Субтитры: Russian, English

Режиссер: Габриела Тальявини
Продюссер: Лукас Джарач, Джейсон Прайс, Чак Биндер
Сценарий: Дон Фибигер, Эми Колквист




В ролях: Шэрон Стоун, Билли Зейн, Роземберг Сальгадо, Маноло Кардона, Мигель Родарт, Джованна Закариас, Ольга Сегура, Гилмер Беджарано, Виктор Медина, Уолтер Платц,

Описание: Американская женщина репортер в поисках своего пропавшего брата, на фоне насилия и человеческой контрабанды на границе США с Мексикой

Качество: BDRip 720p
Формат: MKV
Видео кодек: H.264
Аудио кодек: AC3
Видео: 1280 x 544 (2.353) at 23.976 fps AVC at 4991 Кбит/сек
Аудио#1: AC-3 at 384 Кбит/сек 6 каналов, 48,0 КГц RUS
Аудио#2: AC-3 at 448 Кбит/сек 6 каналов, 48,0 КГц ENG
Релиз от: =Sудья=
Общее
Уникальный идентификатор : 210153046062595701668554770444850843483 (0x9E1A01226E268DA1861083A209484F5B)
Полное имя : D:ФильмыMul.2012.P.BDRip.720p.ac3.=Sудья=.mkv
Формат : Matroska
Версия формата : Version 4 / Version 2
Размер файла : 3,90 Гбайт
Продолжительность : 1 ч. 36 м.
Общий поток : 5812 Кбит/сек
Название фильма : =Sудья=
Дата кодирования : UTC 2010-02-22 21:41:31
Программа кодирования : mkvmerge v5.9.0 ('On The Loose') built on Dec 9 2012 15:37:01
Библиотека кодирования : libebml v1.3.0 + libmatroska v1.4.0

Видео
Идентификатор : 1
Формат : AVC
Формат/Информация : Advanced Video Codec
Профиль формата : High@L4.1
Параметр CABAC формата : Да
Параметр ReFrames формата : 10 кадров
Режим смешивания : Header stripping
Идентификатор кодека : V_MPEG4/ISO/AVC
Продолжительность : 1 ч. 36 м.
Битрейт : 4991 Кбит/сек
Ширина : 1280 пикселей
Высота : 544 пикселя
Соотношение сторон : 2,35:1
Частота кадров : 23,976 кадра/сек
Цветовое пространство : YUV
Субдискретизация насыщенности : 4:2:0
Битовая глубина : 8 бит
Тип развёртки : Прогрессивная
Бит/(Пиксели*Кадры) : 0.299
Размер потока : 3,27 Гбайт (84%)
Заголовок : Mul.2013.BluRay.720p.DTS.x264
Библиотека кодирования : x264 core 128 r2216+698 b3c1019
Настройки программы : cabac=1 / ref=10 / deblock=1:-3:-3 / analyse=0x3:0x113 / me=umh / subme=10 / psy=1 / fade_compensate=0.00 / psy_rd=1.10:0.10 / mixed_ref=1 / me_range=32 / chroma_me=1 / trellis=2 / 8x8dct=1 / cqm=0 / deadzone=21,11 / fast_pskip=0 / chroma_qp_offset=-2 / threads=12 / lookahead_threads=2 / sliced_threads=0 / nr=0 / decimate=1 / interlaced=0 / bluray_compat=0 / constrained_intra=0 / fgo=0 / bframes=6 / b_pyramid=2 / b_adapt=2 / b_bias=0 / direct=3 / weightb=1 / open_gop=0 / weightp=2 / keyint=250 / keyint_min=23 / scenecut=40 / intra_refresh=0 / rc_lookahead=40 / rc=2pass / mbtree=0 / bitrate=4991 / ratetol=1.0 / qcomp=0.70 / qpmin=0 / qpmax=69 / qpstep=4 / cplxblur=20.0 / qblur=0.5 / vbv_maxrate=40000 / vbv_bufsize=30000 / nal_hrd=none / ip_ratio=1.40 / pb_ratio=1.30 / aq=2:0.90
Язык : English
Default : Да
Forced : Да

Аудио #1
Идентификатор : 2
Формат : AC-3
Формат/Информация : Audio Coding 3
Расширение режима : CM (complete main)
Режим смешивания : Header stripping
Идентификатор кодека : A_AC3
Продолжительность : 1 ч. 36 м.
Вид битрейта : Постоянный
Битрейт : 384 Кбит/сек
Каналы : 6 каналов
Расположение каналов : Front: L C R, Side: L R, LFE
Частота : 48,0 КГц
Битовая глубина : 16 бит
Метод сжатия : С потерями
Размер потока : 264 Мбайт (7%)
Заголовок : DD 5.1 @ 384 kbps - MVO, R5
Язык : Russian
Default : Да
Forced : Да

Аудио #2
Идентификатор : 3
Формат : AC-3
Формат/Информация : Audio Coding 3
Расширение режима : CM (complete main)
Режим смешивания : Header stripping
Идентификатор кодека : A_AC3
Продолжительность : 1 ч. 36 м.
Вид битрейта : Постоянный
Битрейт : 448 Кбит/сек
Каналы : 6 каналов
Расположение каналов : Front: L C R, Side: L R, LFE
Частота : 48,0 КГц
Битовая глубина : 16 бит
Метод сжатия : С потерями
Размер потока : 308 Мбайт (8%)
Заголовок : DD 5.1 @ 448 kbps
Язык : English
Default : Нет
Forced : Нет

Текст #1
Идентификатор : 4
Формат : UTF-8
Идентификатор кодека : S_TEXT/UTF8
Идентификатор кодека/Информация : UTF-8 Plain Text
Заголовок : R5
Язык : Russian
Default : Нет
Forced : Нет

Текст #2
Идентификатор : 5
Формат : UTF-8
Идентификатор кодека : S_TEXT/UTF8
Идентификатор кодека/Информация : UTF-8 Plain Text
Язык : English
Default : Нет
Forced : Нет


Мул скачать торрент


pb.wtf



Скачать Мул через торрент http://pic.kartinco.top/images/2/mdbd57ov24.png Скачать фильм Мул через торрент бесплантно в хорошем качестве Описание: Американская женщина репортер в поисках своего пропавшего брата, на фоне насилия и человеческой контрабанды на границе США с ... 7.8 10 5
Info! Золотая раздача, скачанное не засчитывается.
Торрент: Зарегистрирован [2013-03-18 17:50] · скачан: 126 раз
Статус: √ проверено
Размер: 3.9 GB
Как cкачать? Как скачать Мул через торрент | qTorrent

% Раздел Тема Автор DL S | L
T Фильмы [HD 720p, 1080p] (Звук Cam, VO, DVO) [ 8.45 GB ] Мул / The Mule [2014 Австралия BDRip 1080p Любительский [den904 DeadSno] Ворон Скачать
1 | 0
Фильмы 2014 (Звук TS, Cam, VO, DVO) [ 1.46 GB ] Мул / The Mule [2014 Австралия HDRip Любительский [den904 DeadSno] GEKADOL Скачать
1 | 0
T Фильмы [HD 720p, 1080p] (Звук Cam, VO, DVO) [ 4.7 GB ] Мул / The Mule [2014 Австралия BDRip 720p Любительский [den904 DeadSno] Ворон Скачать
1 | 0
Фильмы 2013 [DVDrip, WEB-DLRip, HDrip] [ 1.37 GB ] Мул / The Mule [2012 HDRip MVO лицензия] oleg8 Скачать
1 | 0
Фильмы (DVD фильмы) [ 5.44 GB ] Мул / The Mule [2012 DVD9] R5 voovaz Скачать
1 | 0

28-11-2019 20:33  

Отключить всю рекламу на сайте

    Дорогой пользователь! Огромная просьба, поблагодарите релизера, оцените раздачу и оставьте свои комментарий, если Вы скачали Мул через торрент бесплатно! Внесите свою лепту в развитие PiratBit!
    Комментировать посты могут только пользователи прошедшие не сложную регистрацию
    Показать сообщения:    

    Мул через торрент
    Скачать бесплатно Мул
    Мул скачать торрент
    Мул смотреть онлайн
    Cкачать фильм Мул бесплатно
    Мул скачать торрент в хорошем качестве
    Мул смотреть онлайн бесплатно в хорошем качестве


    Вы не можете начинать темы
    Вы не можете отвечать на сообщения
    Вы не можете редактировать свои сообщения
    Вы не можете удалять свои сообщения
    Вы не можете голосовать в опросах
    Вы не можете прикреплять файлы к сообщениям
    Вы можете скачивать файлы